<?xml version="1.0" standalone="no"?>
<!DOCTYPE svg PUBLIC "-//W3C//DTD SVG 1.1//EN" "http://www.w3.org/Graphics/SVG/1.1/DTD/svg11.dtd" >
<svg xmlns="http://www.w3.org/2000/svg">
<metadata>Generated by IcoMoon</metadata>
<defs>
<font id="icomoon" horiz-adv-x="1024">
<font-face units-per-em="1024" ascent="960" descent="-64" />
<missing-glyph horiz-adv-x="1024" />
<glyph unicode="&#x20;" horiz-adv-x="512" d="" />
<glyph unicode="&#xe900;" glyph-name="1" d="M512 960c-281.6 0-512-230.4-512-512s230.4-512 512-512c281.6 0 512 230.4 512 512s-230.4 512-512 512zM512 44.8c-224 0-403.2 179.2-403.2 403.2s179.2 403.2 403.2 403.2c224 0 403.2-179.2 403.2-403.2s-179.2-403.2-403.2-403.2zM492.801 704c38.4 0 64-25.6 64-64v-185.6l121.599-76.8c32-19.2 38.4-57.6 19.2-89.6s-57.6-38.4-89.599-19.2l-121.6 76.8c-6.4 0-19.2 6.4-25.6 19.2-12.8 12.8-25.6 25.6-32 51.2 0 6.4 0 12.8 0 25.6v198.4c0 32 25.6 64 64 64z" />
<glyph unicode="&#xe901;" glyph-name="2" horiz-adv-x="1317" d="M1150.208 960h-983.847c-92.124 0-166.361-88.697-166.361-198.768v-626.466c0-110.065 74.236-198.766 166.361-198.766h983.847c92.131 0 166.363 88.7 166.363 198.766v626.466c0 110.070-74.233 198.768-166.363 198.768zM1124.272 831.762l-465.986-301.595-465.987 301.595h931.973zM1150.208 64.234h-983.847c-32.199 0-59.031 32.066-59.031 70.532v613.642l517.863-350.753c9.839-8.549 21.466-13.893 33.093-13.893s23.254 4.275 33.093 13.893l517.862 350.753v-613.642c0-39.541-26.829-70.532-59.034-70.532z" />
<glyph unicode="&#xe902;" glyph-name="3" horiz-adv-x="780" d="M390.095 732.036c-93.298 0-169.041-74.118-169.041-165.413s75.743-165.415 169.041-165.415c93.298 0 169.043 74.119 169.043 165.415s-75.745 165.413-169.043 165.413zM390.095 655.691c50.257 0 91.022-39.89 91.022-89.068s-40.765-89.068-91.022-89.068c-50.257 0-91.022 39.89-91.022 89.068s40.765 89.068 91.022 89.068zM390.095 935.619c-215.267 0-390.095-171.075-390.095-381.722 0-98.773 38.294-197.828 91.185-286.389 76.393-127.844 182.792-233.579 237.535-283.682 0.162-0.098 0.26-0.224 0.357-0.317 34.588-30.857 87.512-30.857 122.035 0.063 0.098 0.093 0.195 0.156 0.293 0.254 54.807 50.132 161.205 155.838 237.601 283.682 52.892 88.561 91.185 187.616 91.185 286.389 0 210.647-174.826 381.722-390.096 381.722zM390.095 859.274c172.228 0 312.077-136.847 312.077-305.378 0-85.665-34.655-171.106-80.521-247.867-71.68-119.954-171.644-219.014-223.234-266.186-4.681-4.106-11.703-4.169-16.482-0.19-51.818 47.362-151.714 146.486-223.394 266.377-45.869 76.761-80.522 162.202-80.522 247.867 0 168.53 139.849 305.378 312.076 305.378z" />
<glyph unicode="&#xe903;" glyph-name="4" horiz-adv-x="977" d="M935.35 276.136c-0.317 0.321-0.633 0.638-0.633 0.638l-0.321 0.317-91.318 91.318c-25.772 25.772-59.816 39.773-96.088 39.773-35.956 0-70-14.001-95.455-39.452-0.321-0.321-0.321-0.321-0.638-0.638l-48.365-48.365-223.361 223.366 48.364 48.364c0.318 0.318 0.318 0.318 0.636 0.636 52.501 52.818 52.501 138.727-0.318 191.546l-91.636 91.636c-25.773 25.454-59.818 39.773-95.773 39.773s-70-14-95.772-39.455c-0.318-0.318-0.637-0.636-0.955-0.954l-41.682-41.682c-21.955-21.955-38.818-38.818-39.455-39.455-64.591-64.591-79.863-167.682-42.636-289.864 34.045-111.998 109.136-230.047 210.954-331.865 142.545-142.224 316.911-230.679 455.002-230.679 68.408 0 125.999 21.634 166.726 62.045 0.954 0.954 24.18 24.18 51.866 51.861l30.543 30.548c52.182 52.182 52.82 137.137 1.271 190.273-0.317-0.321-0.633 0-0.954 0.317zM867.579 152.683c-0.321-0.321-0.638-0.638-0.954-0.954l-29.91-29.91c-27.364-27.364-50.274-50.274-51.866-51.866-22.905-22.91-56.315-34.365-99.272-34.365-112.319 0-264.408 79.546-387.544 203.003-91 91.001-157.5 195.044-187.091 292.408-26.091 85.909-19.409 156.864 18.773 194.728l82.091 82.091c0.318 0.318 0.318 0.318 0.318 0.318 7.637 7.318 17.5 11.455 28 11.455s20.682-4.136 28.318-11.455l91.636-91.636c15.591-15.591 15.591-41.364 0-56.954l-82.091-82.091c-18.773-18.773-18.773-49 0-67.455l290.816-290.817c8.909-8.909 21.001-14.001 33.727-14.001 12.73 0 24.823 5.092 33.731 14.001l81.771 81.771c0.317 0.321 0.638 0.638 0.954 0.954 7.638 7.322 17.501 11.455 28.318 11.455s21.001-4.133 28.635-11.771l91.955-91.955c14.955-15.909 14.955-41.365-0.317-56.953z" />
<glyph unicode="&#xe904;" glyph-name="5" d="M1011.849 6.952l-214.010 214.010c65.001 78.205 104.203 178.611 104.203 288.016-0.199 248.612-202.405 451.022-451.020 451.022-248.612 0-451.022-202.41-451.022-451.022 0-248.615 202.41-451.020 451.022-451.020 109.405 0 209.811 39.202 288.016 104.203l214.010-214.010c8.198-8.203 18.802-12.203 29.4-12.203s21.202 3.999 29.4 12.203c16.202 16.202 16.202 42.604 0 58.8zM83.204 508.978c0 202.81 165.008 367.618 367.618 367.618s367.615-165.008 367.615-367.618c0-202.609-165.006-367.621-367.615-367.621s-367.618 165.012-367.618 367.621z" />
<glyph unicode="&#xe905;" glyph-name="6" horiz-adv-x="1650" d="M472.513 945.521c-24.321 21.281-61.288 18.816-82.568-5.505l-375.466-453.485c-19.304-22.062-19.304-55.002 0-77.064l375.466-453.483c21.28-24.32 58.247-26.789 82.568-5.507s26.786 58.249 5.505 82.569l-290.55 356.437h1403.794c32.319 0 58.516 26.2 58.516 58.516s-26.197 58.514-58.516 58.514h-1403.794l290.55 356.439c21.281 24.321 18.817 61.288-5.505 82.568z" />
<glyph unicode="&#xe906;" glyph-name="7" horiz-adv-x="1650" d="M1177.264 945.521c24.32 21.281 61.286 18.816 82.569-5.505l375.467-453.485c19.302-22.062 19.302-55.002 0-77.064l-375.467-453.483c-21.282-24.32-58.249-26.789-82.569-5.507s-26.783 58.249-5.507 82.569l290.554 356.437h-1403.798c-32.316 0-58.514 26.2-58.514 58.516s26.198 58.514 58.514 58.514h1403.798l-290.554 356.439c-21.276 24.321-18.813 61.288 5.507 82.568z" />
<glyph unicode="&#xe907;" glyph-name="8" d="M914.454 198.134l30.426 371.866h4.108c41.359 0 75.013 33.654 75.013 75.014s-33.654 74.986-74.986 74.986h-11.574c-4.48 20.266-11.813 39.574-21.787 57.494h14.053c15.948 0 30.214 9.519 36.294 24.266 6.106 14.72 2.772 31.547-8.507 42.827l-58.481 58.48c-11.279 11.28-28.079 14.613-42.826 8.533-14.72-6.107-24.241-20.347-24.241-36.32v-14.187c-25.012 13.893-52.719 22.8-81.386 25.867-45.201 4.827-91.146-4.907-130.267-27.44-16.613 10.187-34.533 18.053-53.226 23.413l9.999 10c11.281 11.28 14.614 28.080 8.534 42.827-6.134 14.72-20.374 24.24-36.32 24.24h-82.693c-15.973 0-30.213-9.52-36.32-24.267-6.107-14.72-2.747-31.547 8.532-42.827l10.001-10c-17.253-4.933-33.814-11.973-49.334-21.040-65.6 35.893-144 34.427-207.387-0.747v14.133c0 15.947-9.519 30.213-24.239 36.293-14.747 6.107-31.547 2.773-42.827-8.507l-58.507-58.453c-11.28-11.28-14.613-28.107-8.507-42.827 6.107-14.747 20.347-24.266 36.293-24.266h14.053c-9.947-17.92-17.333-37.228-21.84-57.494h-11.547c-41.307 0-74.96-33.654-74.96-75.013 0-41.361 33.653-75.013 75.013-75.013h4.107l30.427-371.84c-53.253-18.988-89.547-69.76-89.547-127.148 0-24.16 6.48-47.892 18.693-68.586 2.8-4.746 7.813-7.387 12.933-7.387 2.587 0 5.227 0.667 7.627 2.080 7.12 4.214 9.493 13.413 5.28 20.561-9.52 16.079-14.533 34.533-14.533 53.332 0 42.107 25.12 79.601 62.72 96.134 2.987-16.694 9.067-32.561 17.867-46.854-18.107-9.012-30.587-27.707-30.587-49.28 0-30.319 24.667-55.013 54.986-55.013 26.907 0 49.361 19.441 54.080 45.014 11.761-3.308 24.054-5.014 36.507-5.014h13.307c-7.36-50.693-51.414-89.999-103.894-89.999-19.092 0-37.786 5.172-54.053 14.959-7.093 4.268-16.32 1.974-20.587-5.12-4.267-7.092-1.973-16.32 5.12-20.586 20.933-12.561 44.987-19.227 69.52-19.227 35.68 0 69.334 13.787 94.747 38.826 22.321 21.974 36.054 50.427 39.441 81.174h445.679c3.414-30.934 17.28-59.547 39.786-81.546 25.361-24.8 58.88-38.454 94.348-38.454 74.427 0 135.013 60.561 135.013 135.013 0 57.147-36.374 108.106-89.546 127.121zM844.133 73.041c9.226 5.146 17.868 11.386 25.787 18.666 1.334 1.226 2.639 2.506 3.919 3.786 11.468-2.267 20.161-12.372 20.161-24.534 0-13.786-11.227-25.012-25.014-25.012s-25.014 11.227-25.014 25.012c0.027 0.721 0.106 1.414 0.16 2.081zM861.92 875.253c0 5.627 4 7.867 5.733 8.587 1.706 0.72 6.161 1.947 10.134-2.027l58.479-58.48c3.974-3.946 2.72-8.399 2.001-10.134-0.721-1.733-2.988-5.733-8.588-5.733h-34.213c-4.933 6.134-10.213 12.054-15.866 17.708-5.601 5.626-11.547 10.853-17.708 15.76v34.32h0.027zM858.427 804c23.466-23.466 39.919-52.266 48.16-84h-188.133c-9.521 46.001-34.080 87.919-69.947 118.933-0.374 0.347-0.8 0.64-1.174 0.987 70.294 34.107 154.56 20.587 211.094-35.92zM507.919 861.253c85.201 0 159.867-59.733 179.761-141.253h-359.52c19.894 81.521 94.533 141.253 179.759 141.253zM460 914.133c-3.973 3.973-2.72 8.4-2.026 10.133 0.719 1.707 2.986 5.733 8.586 5.733h82.693c5.6 0 7.867-4 8.586-5.733 0.721-1.733 1.947-6.16-2.026-10.133l-24.239-24.24c-7.84 0.88-15.734 1.36-23.68 1.36-7.948 0-15.84-0.48-23.68-1.36l-24.214 24.24zM94.32 807.493c-5.6 0-7.867 4-8.587 5.733s-1.947 6.161 2.027 10.134l58.48 58.48c3.946 3.973 8.399 2.747 10.134 2.027 1.733-0.72 5.733-2.987 5.733-8.587v-34.267c-6.134-4.907-12.054-10.133-17.708-15.813-5.652-5.627-10.932-11.547-15.866-17.708h-34.214zM165.573 804c54.56 54.533 136.667 69.040 205.866 38.32-1.386-1.147-2.799-2.24-4.16-3.44-35.813-31.013-60.346-72.906-69.866-118.88h-180.026c8.267 31.707 24.747 60.534 48.186 84zM180 70.986c0-13.786-11.227-25.012-25.014-25.012s-24.987 11.227-24.987 25.012c0 12.134 8.694 22.267 20.16 24.534 1.281-1.28 2.587-2.56 3.921-3.786 7.919-7.308 16.586-13.548 25.814-18.693 0.079-0.667 0.106-1.361 0.106-2.054zM140.933 182.427l-31.733 387.572h566.374c8.293 0 14.986 6.721 14.986 15.014s-6.72 15.013-14.986 15.013h-600.56c-24.827 0-45.013 20.187-45.013 45.014 0 24.8 20.187 45.012 45.013 45.012h874c24.8 0 45.012-20.187 45.012-45.012 0-24.827-20.186-45.014-45.012-45.014h-213.44c-8.294 0-15.014-6.72-15.014-15.013s6.72-15.014 15.014-15.014h179.226l-31.732-387.572c-4.428-54.080-50.4-96.426-104.667-96.426h-532.827c-54.24 0-100.214 42.373-104.64 96.426zM869.014-33.999c-52.32 0-96.507 39.36-103.894 89.999h13.307c12.48 0 24.746 1.733 36.507 5.014 4.719-25.573 27.146-45.014 54.080-45.014 30.319 0 55.013 24.667 55.013 55.013 0 21.573-12.48 40.241-30.587 49.253 8.8 14.294 14.88 30.161 17.866 46.854 37.548-16.561 62.72-54.188 62.72-96.108-0.026-57.92-47.119-105.012-105.012-105.012zM534.533 444.532l23.308-40.374-11.68 5.094c-7.601 3.306-16.428-0.16-19.734-7.761-3.306-7.599 0.16-16.426 7.759-19.734l53.44-23.279c1.92-0.854 3.974-1.253 6.001-1.253 2.614 0 5.199 0.667 7.493 1.999 4.133 2.373 6.88 6.587 7.414 11.308l6.56 57.92c0.933 8.239-4.987 15.68-13.201 16.586-8.239 0.906-15.653-4.987-16.586-13.228l-1.44-12.666-23.306 40.372c-9.947 17.228-27.734 27.494-47.628 27.494-19.892 0-37.679-10.294-47.626-27.494l-25.947-44.933c-4.16-7.173-1.679-16.347 5.494-20.48s16.347-1.679 20.48 5.494l25.947 44.933c4.532 7.813 12.613 12.507 21.652 12.507 9.014 0 17.093-4.667 21.6-12.507zM634.72 331.040c-4.133 7.173-13.334 9.627-20.48 5.494-7.173-4.133-9.627-13.334-5.494-20.48l25.947-44.933c4.507-7.84 4.507-17.174 0-25.014-4.534-7.84-12.613-12.507-21.652-12.507h-46.614l10.267 7.574c6.666 4.933 8.052 14.319 3.146 20.987-4.933 6.666-14.319 8.079-20.987 3.146l-46.88-34.641c-3.84-2.826-6.080-7.306-6.080-12.052 0-4.773 2.24-9.228 6.080-12.054l46.88-34.639c2.668-1.974 5.814-2.934 8.908-2.934 4.586 0 9.12 2.107 12.079 6.107 4.906 6.666 3.52 16.052-3.146 20.987l-10.267 7.572h46.614c19.892 0 37.706 10.294 47.626 27.493 9.92 17.201 9.947 37.787 0 55.014l-25.947 44.879zM464.8 233.599h-51.894c-9.039 0-17.12 4.667-21.652 12.507-4.534 7.813-4.534 17.174 0 25.014l23.306 40.372 1.44-12.666c0.854-7.654 7.36-13.307 14.88-13.307 0.561 0 1.147 0.027 1.706 0.106 8.241 0.933 14.134 8.374 13.228 16.586l-6.56 57.92c-0.534 4.721-3.308 8.934-7.414 11.308-4.133 2.4-9.147 2.666-13.494 0.773l-53.44-23.281c-7.599-3.306-11.066-12.16-7.759-19.759 3.306-7.601 12.133-11.067 19.734-7.761l11.68 5.094-23.308-40.374c-9.947-17.226-9.947-37.787 0-55.013 9.947-17.228 27.761-27.493 47.628-27.493h51.892c8.293 0 15.013 6.72 15.013 15.013 0.027 8.239-6.693 14.959-14.986 14.959z" />
<glyph unicode="&#xe908;" glyph-name="9" d="M990.959 563.601c18.214 0 33.041 14.826 33.041 33.039v66.053c0 18.213-14.801 33.041-33.041 33.041h-1.012l-11.68 186.826c-2.693 43.44-38.88 77.44-82.4 77.44h-272.266c-43.494 0-79.707-34-82.427-77.44l-11.68-186.826h-1.014c-6.053 0-11.653-1.76-16.507-4.588-4.879 2.854-10.479 4.588-16.534 4.588h-1.012l-11.68 186.826c-2.668 43.44-38.853 77.44-82.348 77.44h-272.266c-43.52 0-79.706-34-82.426-77.44l-11.653-186.826h-1.013c-18.24 0-33.040-14.801-33.040-33.014v-66.053c0-18.213 14.8-33.041 33.040-33.041h0.853l22.613-429.413h-23.467c-18.24-0.027-33.040-14.826-33.040-33.066v-99.094c0-18.213 14.8-33.039 33.040-33.039h46.32c15.093-20.054 38.987-33.014 65.893-33.014h238.001c26.907 0 50.799 12.96 65.92 33.041h46.292c6.054 0 11.653 1.76 16.534 4.586 4.879-2.853 10.479-4.586 16.507-4.586h46.292c15.121-20.054 39.014-33.041 65.921-33.041h237.999c26.907 0 50.826 12.96 65.92 33.041h46.319c18.214 0 33.041 14.799 33.041 33.039v99.094c0 18.213-14.801 33.039-33.041 33.039h-23.439l22.614 429.413h0.826v-0.026zM574.159 880.507c1.627 26.053 23.361 46.453 49.441 46.453h272.239c26.107 0 47.84-20.4 49.44-46.453l11.574-184.773h-394.24l11.546 184.773zM990.959 662.72v-66.053l-462.452-0.027v66.107l462.452-0.027zM512 129.6c-4.881 2.853-10.479 4.586-16.534 4.586h-23.412l22.612 429.414h0.827c6.053 0 11.653 1.76 16.534 4.586 4.879-2.853 10.479-4.586 16.507-4.586h0.826l22.614-429.414h-23.439c-6.054 0-11.654-1.733-16.534-4.586zM78.693 880.507c1.627 26.053 23.36 46.453 49.44 46.453h272.241c26.080 0 47.84-20.4 49.44-46.453l11.572-184.773h-394.266l11.573 184.773zM33.040 662.72h462.426v-66.053h-462.426v66.053zM33.040 2.053v99.094h25.2l4.56-86.907c0.213-4.187 1.013-8.187 1.84-12.187h-31.6zM432.721 16c-1.361-26.346-23.094-46.959-49.467-46.959h-238.001c-26.373 0-48.106 20.613-49.466 46.959l-28.827 547.601h394.586l-28.826-547.601zM463.894 2.053c0.8 4 1.626 8 1.839 12.187l4.561 86.907h25.199v-99.094h-31.599zM528.507 2.053v99.094h25.199l4.561-86.907c0.212-4.187 1.012-8.187 1.839-12.187h-31.599zM990.959 101.147v-99.094h-31.599c0.8 4 1.6 8 1.841 12.187l4.559 86.907h25.199zM928.214 16c-1.388-26.346-23.094-46.959-49.467-46.959h-238.001c-26.373 0-48.079 20.613-49.467 46.959l-28.852 547.626h394.587l-28.8-547.626zM346.853 398.454h-16.532v33.014h33.039v33.066h-198.213v-33.039h33.039v-33.041h-16.506c-27.308 0-49.548-22.24-49.548-49.546v-231.227c0-27.306 22.24-49.546 49.548-49.546h165.172c27.308 0 49.546 22.24 49.546 49.546v231.227c0 27.306-22.239 49.546-49.546 49.546zM231.227 431.468h66.053v-33.039h-66.053v33.039zM181.681 365.414h165.172c9.12 0 16.507-7.387 16.507-16.507v-33.039h-198.213v33.039c0 9.12 7.414 16.507 16.534 16.507zM363.36 282.854v-82.587h-198.213v82.587h198.213zM346.853 101.148h-165.172c-9.12 0-16.534 7.412-16.534 16.532v49.548h198.186v-49.548c0.027-9.12-7.387-16.532-16.48-16.532zM693.679 134.188h132.134c45.546 0 82.586 37.039 82.586 82.559v16.534h-16.506c-14.080 0-26.747 7.813-33.041 20.428l-12 23.973-16.187-16.214c-2.826-2.826-5.866-5.386-9.012-7.813-7.948 13.947-12.347 29.519-12.347 45.679s4.399 31.734 12.347 45.681c3.146-2.427 6.186-4.987 9.012-7.813l16.187-16.214 12 24c6.294 12.586 18.934 20.401 33.041 20.401h16.506v16.532c0 45.521-37.039 82.587-82.586 82.587h-49.548v33.039h-33.039v-33.039h-49.548c-45.519 0-82.586-37.041-82.586-82.587v-16.532h16.506c14.080 0 26.747-7.814 33.041-20.401l12-24 16.187 16.214c2.826 2.826 5.866 5.386 9.012 7.813 7.948-13.947 12.347-29.521 12.347-45.681s-4.399-31.732-12.347-45.679c-3.146 2.427-6.186 4.987-9.012 7.813l-16.187 16.214-12-23.973c-6.294-12.588-18.934-20.428-33.041-20.428h-16.506v-16.534c0-45.519 37.039-82.559 82.586-82.559zM680.987 373.787c-9.12 10.799-21.228 18.506-34.828 22.213 6.054 20.507 25.094 35.493 47.52 35.493h132.134c22.426 0 41.466-14.986 47.52-35.493-13.6-3.707-25.708-11.414-34.828-22.213-21.947 15.84-48.719 24.667-75.919 24.667h-5.681c-27.2 0-53.972-8.827-75.919-24.667zM726.959 360.507c9.627 3.173 19.734 4.906 29.947 4.906h5.681c10.213 0 20.32-1.76 29.947-4.906-10.481-18.693-16.268-39.547-16.268-61.147s5.787-42.454 16.268-61.147c-9.627-3.173-19.734-4.906-29.947-4.906h-5.681c-10.24 0-20.32 1.76-29.947 4.906 10.481 18.693 16.268 39.547 16.268 61.147s-5.814 42.454-16.268 61.147zM680.987 224.933c21.947-15.866 48.719-24.666 75.919-24.666h5.681c27.2 0 53.999 8.8 75.919 24.666 9.12-10.799 21.228-18.533 34.828-22.213-6.054-20.507-25.094-35.493-47.52-35.493h-132.134c-22.426 0-41.466 14.986-47.52 35.493 13.6 3.707 25.708 11.414 34.828 22.213z" />
<glyph unicode="&#xe909;" glyph-name="10" d="M938.666 857.6h-85.332v34.133c0 37.689-30.578 68.267-68.268 68.267-37.688 0-68.266-30.578-68.266-68.267v-34.133h-136.534v34.133c0 37.689-30.578 68.267-68.266 68.267s-68.266-30.578-68.266-68.267v-34.133h-136.534v34.133c0 37.689-30.578 68.267-68.266 68.267-37.69 0-68.268-30.578-68.268-68.267v-34.133h-85.333c-47.133 0-85.333-38.2-85.333-85.334v-682.666c0-47.132 38.201-85.334 85.333-85.334h477.867c9.416 0 17.066 7.652 17.066 17.068 0 9.414-7.651 17.066-17.066 17.066h-477.867c-28.245 0.086-51.115 22.954-51.2 51.2v529.066h955.733v-290.132c0-9.416 7.652-17.068 17.068-17.068 9.414 0 17.066 7.652 17.066 17.068v443.732c0 47.133-38.2 85.334-85.334 85.334zM750.934 891.733c0 18.859 15.274 34.133 34.132 34.133 18.86 0 34.134-15.275 34.134-34.133v-102.4c0-18.86-15.274-34.134-34.134-34.134-18.858 0-34.132 15.274-34.132 34.134v102.4zM477.866 891.733c0 18.859 15.276 34.133 34.134 34.133s34.134-15.275 34.134-34.133v-102.4c0-18.86-15.276-34.134-34.134-34.134s-34.134 15.274-34.134 34.134v102.4zM204.8 891.733c0 18.859 15.274 34.133 34.134 34.133 18.858 0 34.132-15.275 34.132-34.133v-102.4c0-18.86-15.274-34.134-34.132-34.134-18.86 0-34.134 15.274-34.134 34.134v102.4zM989.866 652.8h-955.733v119.466c0.085 28.246 22.955 51.116 51.2 51.2h85.333v-34.132c0-37.69 30.578-68.268 68.268-68.268 37.688 0 68.266 30.578 68.266 68.268v34.132h136.534v-34.132c0-37.69 30.578-68.268 68.266-68.268s68.266 30.578 68.266 68.268v34.132h136.534v-34.132c0-37.69 30.578-68.268 68.266-68.268 37.69 0 68.268 30.578 68.268 68.268v34.132h85.332c28.246-0.084 51.116-22.954 51.2-51.2v-119.466zM477.866 499.201c0 18.858-15.274 34.132-34.132 34.132h-68.268c-18.858 0-34.132-15.274-34.132-34.132v-51.2c0-18.86 15.274-34.134 34.132-34.134h68.268c18.858 0 34.132 15.274 34.132 34.134v51.2zM375.466 448.001v51.2h68.268v-51.2h-68.268zM273.066 499.201c0 18.858-15.274 34.132-34.132 34.132h-68.268c-18.858 0-34.132-15.274-34.132-34.132v-51.2c0-18.86 15.274-34.134 34.132-34.134h68.268c18.858 0 34.132 15.274 34.132 34.134v51.2zM170.666 448.001v51.2h68.268v-51.2h-68.268zM853.334 413.868c18.858 0 34.132 15.274 34.132 34.134v51.2c0 18.858-15.274 34.132-34.132 34.132h-68.268c-18.858 0-34.132-15.274-34.132-34.132v-51.2c0-18.86 15.274-34.134 34.132-34.134h68.268zM785.066 499.201h68.268v-51.2h-68.268v51.2zM477.866 345.601c0 18.858-15.274 34.132-34.132 34.132h-68.268c-18.858 0-34.132-15.274-34.132-34.132v-51.2c0-18.86 15.274-34.134 34.132-34.134h68.268c18.858 0 34.132 15.274 34.132 34.134v51.2zM375.466 294.401v51.2h68.268v-51.2h-68.268zM273.066 345.601c0 18.858-15.274 34.132-34.132 34.132h-68.268c-18.858 0-34.132-15.274-34.132-34.132v-51.2c0-18.86 15.274-34.134 34.132-34.134h68.268c18.858 0 34.132 15.274 34.132 34.134v51.2zM170.666 294.401v51.2h68.268v-51.2h-68.268zM443.734 226.134h-68.268c-18.858 0-34.132-15.274-34.132-34.132v-51.2c0-18.86 15.274-34.134 34.132-34.134h68.268c18.858 0 34.132 15.274 34.132 34.134v51.2c0 18.858-15.274 34.132-34.132 34.132zM375.466 140.801v51.2h68.268v-51.2h-68.268zM580.266 413.868h68.268c18.858 0 34.132 15.274 34.132 34.134v51.2c0 18.858-15.274 34.132-34.132 34.132h-68.268c-18.858 0-34.132-15.274-34.132-34.132v-51.2c0-18.86 15.274-34.134 34.132-34.134zM580.266 499.201h68.268v-51.2h-68.268v51.2zM546.134 294.401c0-18.86 15.274-34.134 34.132-34.134 9.416 0 17.068 7.652 17.068 17.066 0 9.416-7.652 17.068-17.068 17.068v51.2h68.268c9.414 0 17.066 7.652 17.066 17.066 0 9.416-7.652 17.066-17.066 17.066h-68.268c-18.858 0-34.132-15.274-34.132-34.132v-51.2zM238.934 226.134h-68.268c-18.858 0-34.132-15.274-34.132-34.132v-51.2c0-18.86 15.274-34.134 34.132-34.134h68.268c18.858 0 34.132 15.274 34.132 34.134v51.2c0 18.858-15.274 34.132-34.132 34.132zM170.666 140.801v51.2h68.268v-51.2h-68.268zM802.134 379.734c-89.743 0-170.639-54.044-204.972-136.96-34.332-82.886-15.36-178.346 48.1-241.777 63.46-63.432 158.89-82.432 241.778-48.1 82.916 34.332 136.96 115.228 136.96 204.97-0.142 122.482-99.386 221.724-221.866 221.866zM802.134-29.866c-75.948 0-144.384 45.74-173.455 115.884-29.041 70.144-12.998 150.898 40.704 204.6 53.704 53.704 134.429 69.746 204.602 40.704 70.144-29.070 115.882-97.508 115.882-173.454-0.114-103.622-84.11-187.62-187.732-187.734zM900.75 229.403l-132.75-132.75-60.33 60.33c-6.685 6.458-17.324 6.372-23.922-0.198-6.572-6.57-6.685-17.21-0.2-23.922l72.392-72.42c6.656-6.656 17.464-6.656 24.12 0l144.81 144.812c6.458 6.712 6.372 17.35-0.198 23.921-6.57 6.6-17.238 6.714-23.922 0.228z" />
<glyph unicode="&#xe90a;" glyph-name="11" horiz-adv-x="1280" d="M271.532 235.922l-271.532 271.516 181.020 181.015 271.519-271.516 543.071 543.063 181.019-181.015-724.078-724.078-181.019 181.015z" />
<glyph unicode="&#xe90b;" glyph-name="12" horiz-adv-x="1004" d="M230.64 690.773h18.186c34.641 0 53.76-11.573 75.894-24.988 19.68-11.92 41.947-25.439 75.067-28.932l225.599-30.694c3.761-0.506 7.68-0.906 11.573-0.906 8.401 0 16.8 1.786 23.627 7.946 11.36 10.24 10.88 25.094 10.4 39.44-0.906 27.36-25.332 72.535-68.799 86.134l-41.413 13.040c-27.014 8.48-30.161 15.866-30.186 15.866 0 0.027 19.785 26.96 19.785 26.96 7.92 9.867 8.56 10.667 41.415-3.040l199.465-83.094c42.854-17.867 78.454 0.774 91.467 28.428 11.813 25.092 6.668 61.546-32.534 82.213l-240.853 127.040c-0.666 0.347-1.361 0.667-2.054 0.933-65.839 25.707-119.68 7.387-162.932-7.333-10.161-3.467-19.734-6.72-28.453-9.013-44.64-11.76-109.361-11.76-136.988-11.76h-48.266c-6.906 11.787-19.68 19.733-34.294 19.733h-176.347c-11.040 0-20-8.96-20-20s8.96-20 20-20l176.107 0.027v-187.733h-176.107c-11.040 0-20-8.96-20-20.001 0-11.040 8.96-20 20-20h176.347c14.613 0 27.387 7.948 34.294 19.734zM426.053 892.106c10.080 2.64 20.32 6.133 31.147 9.813 38.772 13.2 82.694 28.133 134.481 8.347l239.866-126.48c17.146-9.040 18.985-21.306 15.013-29.787-4.933-10.48-19.2-17.174-39.92-8.533l-199.467 83.093c-32.534 13.573-60.613 25.28-88.027-8.88l-15.707-19.68c-14.667-18.267-14.133-33.867-11.146-43.76 5.626-18.454 24.080-32.374 56.48-42.533l41.44-13.040c27.414-8.586 40.48-39.146 40.826-49.308 0.028-1.252 0.106-3.413 0.134-5.626-0.134 0.028-0.268 0.053-0.4 0.053l-225.894 30.72c-0.187 0.028-0.4 0.053-0.612 0.081-24.373 2.532-40.32 12.213-58.801 23.412-23.812 14.427-50.8 30.775-96.612 30.775h-12.721v148.266h42.774c31.653 0 97.52 0 147.147 13.067zM940.481 369.786h-159.921l-13.013 53.148 65.493 36.025c4.801 2.641 8.32 7.148 9.706 12.453 1.386 5.307 0.534 10.961-2.345 15.6l-57.387 92.615c-5.573 9.013-17.199 12.105-26.506 7.066l-105.387-56.907c-1.573-0.853-3.040-1.92-4.346-3.147l-54.827-52.506-66.4 8.667c-10.053 1.306-19.519-5.094-22-14.935l-24.72-98.080h-234.48c-25.12 0-45.572-20.399-45.572-45.44v-48.933c0-24.773 19.946-44.96 44.666-45.44l44.853-277.199c1.573-9.815 10.080-16.827 19.706-16.827 1.067 0 2.135 0.106 3.228 0.266 10.906 1.76 18.32 12.026 16.559 22.934l-43.813 270.773h218.427c11.040 0 20 8.96 20 20 0 11.041-8.96 20.001-20 20.001h-258.054c-3.013 0-5.573 2.507-5.573 5.439v48.933c0 2.96 2.56 5.441 5.573 5.441h696.107c2.987 0 5.52-2.507 5.52-5.441v-48.933c0-2.96-2.507-5.439-5.52-5.439h-258.080c-11.040 0-20-8.96-20-20.001s8.96-20 20-20h218.427l-43.813-270.72c-1.76-10.906 5.652-21.173 16.559-22.934 1.067-0.16 2.16-0.266 3.228-0.266 9.626 0 18.133 6.987 19.706 16.827l44.853 277.199c24.692 0.453 44.666 20.64 44.666 45.44v48.933c-0.026 25.013-20.427 45.387-45.519 45.387zM538 440.854l58.268-7.627c6-0.8 12.054 1.199 16.425 5.386l59.813 57.253 86.428 46.667 36.374-58.693-60.481-33.28c-7.92-4.374-11.92-13.493-9.787-22.294l14.348-58.533h-219.28l17.892 71.121zM447.441 107.146c-1.467 10.933-11.52 18.641-22.481 17.148-10.961-1.467-18.613-11.548-17.146-22.481l20-148.452c1.333-10.055 9.921-17.333 19.787-17.333 0.88 0 1.786 0.053 2.694 0.185 10.959 1.467 18.639 11.548 17.146 22.481l-20 148.452zM759.814 124.264c-10.933 1.467-21.014-6.213-22.481-17.146l-19.946-148.452c-1.467-10.961 6.213-21.014 17.146-22.481 0.908-0.106 1.814-0.187 2.694-0.187 9.866 0 18.454 7.28 19.787 17.333l19.946 148.454c1.467 10.959-6.213 21.014-17.146 22.479zM592.374 162.373c-11.041 0-20.001-8.96-20.001-20v-186.401c0-11.040 8.96-20 20.001-20s20 8.96 20 20v186.401c0 11.040-8.96 20-20 20zM592.374 269.972c-11.041 0-20.001-8.96-20.001-20.001s8.96-20 20.001-20h0.106c11.040 0 19.946 8.96 19.946 20 0 11.041-9.013 20.001-20.053 20.001z" />
<glyph unicode="&#xe90c;" glyph-name="13" horiz-adv-x="1067" d="M1047.057 755.418h-196.034l-173.856 173.854c-19.637 19.915-46.091 30.728-74.255 30.728-27.885 0-54.34-10.812-74.255-30.728l-50.793-50.793-5.557 5.556c-19.637 19.916-46.091 30.728-74.255 30.728-27.885 0-54.34-10.812-74.255-30.728l-128.617-128.617h-195.18v-45.536h91.051v-637.316h68.294c0-75.388 61.178-136.565 136.566-136.565s136.589 61.178 136.589 136.565h182.080c0-75.388 61.178-136.565 136.565-136.565 75.39 0 136.567 61.178 136.567 136.565h68.294v637.316h91.051v45.536zM560.817 897.113c22.479 22.48 62.012 22.48 84.491 0l141.694-141.695h-186.076l-90.925 90.902 50.816 50.793zM355.936 851.598c22.479 22.48 62.031 22.48 84.491 0l96.179-96.158h-276.83l96.16 96.158zM295.91-18.485c-50.086 0-91.050 40.964-91.050 91.051h182.082c0.021-50.086-40.964-91.051-91.031-91.051zM751.145-18.485c-50.065 0-91.051 40.964-91.051 91.051h182.103c0-50.086-40.986-91.051-91.053-91.051zM910.49 118.080h-773.923v591.802h773.923v-591.802zM751.145 300.181v227.618h-455.234v-227.618h455.234zM341.425 482.285h364.205v-136.565h-364.205v136.565z" />
<glyph unicode="&#xe90d;" glyph-name="14" horiz-adv-x="881" d="M766.188 324.186c19.413 10 32.745 30.214 32.745 53.52 0 30.134-22.292 55.173-51.227 59.494l19.040 76.239c3.146 12.614-6.4 24.855-19.413 24.855-17.867 0-27.841-5.308-35.121-9.202-5.439-2.906-8.452-4.506-16.318-4.506-7.84 0-10.854 1.599-16.294 4.506-5.067 2.72-11.467 6.107-20.879 7.922l3.013 47.999c24.16 11.121 40.96 35.521 40.96 63.814 0 28.772-17.414 53.547-42.24 64.373l-29.946 179.76c-6.506 38.853-39.789 67.040-79.174 67.040-7.334 0-331.626 0-379.894 0-39.387 0-72.667-28.187-79.147-67.040l-29.947-179.76c-24.827-10.826-42.24-35.6-42.24-64.373 0-28.293 16.827-52.693 40.987-63.814l25.813-412.987c-50.16-14.559-86.907-60.879-86.907-115.626 0-66.374 54.027-120.4 120.427-120.4h610.56c73.279 0 132.372 59.279 132.372 132.372 0 93.948-34.451 185.254-97.171 255.814zM758.934 377.733c0-11.121-9.040-20.161-20.161-20.161-30.906 0-166.24 0-188.559 0-11.121 0-20.161 9.040-20.161 20.161s9.040 20.161 20.161 20.161c189.467 0 167.039 0 188.559 0 11.121-0.027 20.161-9.066 20.161-20.161zM126.667 176.667l-25.12 401.947h519.706l-2.826-45.146c-11.866-4.88-13.466-8.907-25.36-8.907-9.998 0-12.186 2.64-21.092 6.959-3.68 4.133-8.987 6.748-14.934 6.748h-391.28c-11.52 0-20.667-9.734-19.947-21.254l21.867-349.893c-12.72 5.466-26.533 8.798-41.013 9.546zM233.947 16.321h202.373c6.48-15.094 15.706-28.721 27.013-40.321h-253.387c10.453 11.626 18.668 25.281 24.001 40.321zM425.628 68.372c0-4.053 0.213-8.079 0.586-12.052h-185.387c0 30.906-11.626 59.279-31.199 80.853l-22.587 361.093h338.96l15.254-61.065c-28.961-4.348-51.227-29.36-51.227-59.494 0-23.306 13.332-43.52 32.745-53.52-62.667-70.506-97.145-161.812-97.145-255.814zM695.921 484.561c9.892 0 17.385 1.626 23.333 3.76l-12.614-50.455h-124.293l-12.614 50.455c5.947-2.107 13.414-3.76 23.333-3.76 17.867 0 27.841 5.333 35.121 9.2 5.652 3.013 8.641 4.506 16.292 4.506 7.868 0 10.854-1.599 16.321-4.506 7.281-3.867 17.254-9.2 35.121-9.2zM502.053 920v-100.667c0-11.013-8.96-20-19.999-20h-241.308c-11.041 0-20.001 8.987-20.001 20v100.667h281.307zM131.76 886.373c3.253 19.493 19.947 33.627 39.68 33.627h9.28v-100.667c0-33.093 26.906-60 60-60h241.308c33.092 0 59.998 26.907 59.998 60v100.667h9.282c19.759 0 36.452-14.133 39.707-33.627l27.894-167.359h-515.041l27.893 167.359zM90.293 679.012h542.213c16.64 0 30.188-13.545 30.188-30.212 0-16.64-13.548-30.214-30.188-30.214h-542.213c-16.667 0-30.213 13.548-30.213 30.214s13.547 30.212 30.213 30.212zM40 56.4c0 44.347 36.080 80.4 80.4 80.4 50.72 0 88.879-46.559 78.826-96.346-8.133-38.56-41.413-64.455-78.826-64.455-44.32 0-80.4 36.080-80.4 80.4zM730.96-24.001h-172.96c-50.934 0-92.373 41.441-92.373 92.373 0 90.933 36.239 182.082 106.213 249.174h145.279c69.974-67.066 106.213-158.212 106.213-249.174 0.027-50.932-41.146-92.373-92.373-92.373z" />
<glyph unicode="&#xe90e;" glyph-name="15" horiz-adv-x="1229" d="M801.288-64h-622.365c-98.664 0-178.923 80.259-178.923 178.924 0 173.517 141.154 314.673 314.673 314.673h350.899c173.519 0 314.673-141.156 314.673-314.673-0.033-98.629-80.292-178.924-178.957-178.924zM314.673 371.231c-141.292 0-256.275-114.982-256.275-256.274 0-66.47 54.087-120.525 120.525-120.525h622.365c66.47 0 120.558 54.054 120.558 120.525 0 141.292-114.982 256.274-256.274 256.274h-350.899zM490.104 491.31c-129.213 0-234.343 105.132-234.343 234.345s105.13 234.344 234.343 234.344c129.216 0 234.345-105.13 234.345-234.344 0-129.181-105.129-234.345-234.345-234.345zM490.104 901.602c-97.021 0-175.946-78.925-175.946-175.946s78.925-175.947 175.946-175.947c97.024 0 175.949 78.925 175.949 175.947s-78.925 175.946-175.949 175.946zM1088.658 55.532h-30.651c-16.115 0-29.184 13.069-29.184 29.217 0 16.113 13.069 29.181 29.184 29.181h30.651c43.62 0 79.063 35.476 79.063 79.096v35.546c0 97.738-79.506 177.247-177.247 177.247h-106.601c-16.115 0-29.181 13.066-29.181 29.181 0 16.113 13.066 29.215 29.181 29.215h106.601c129.933 0 235.643-105.71 235.643-235.643v-35.546c0-75.812-61.681-137.495-137.459-137.495zM825.953 514.163c-20.321 0-40.402 3.149-59.594 9.306-15.363 4.961-23.777 21.384-18.852 36.744 4.928 15.327 21.384 23.777 36.71 18.849 13.409-4.311 27.436-6.5 41.702-6.5 74.954 0 135.918 60.964 135.918 135.92s-60.964 135.92-135.918 135.92c-14.267 0-28.293-2.19-41.669-6.534-15.36-4.961-31.816 3.455-36.777 18.782-4.961 15.361 3.456 31.816 18.783 36.777 19.156 6.192 39.24 9.339 59.663 9.339 107.113 0 194.284-87.169 194.284-194.284 0.069-107.148-87.101-194.319-194.25-194.319z" />
<glyph unicode="&#xe90f;" glyph-name="16" horiz-adv-x="758" d="M757.76 685.814h-96.553l-19.847 95.386h-164.545l-57.932 56.24-127.13-136.694-27.947 94.668-78.048 44.613-24.139 119.973-45.407-9.040 24.487-121.627-53.185-72.693 16.441-70.826h-103.956v-132.667h45.38v-617.146h667.027v617.146h45.38v132.667h-0.027zM603.677 735.146l9.574-46.053h-41.357l-46.32 46.053h78.103zM420.6 771.44l84.832-82.321h-161.405l76.573 82.321zM172.483 794.507l52.113-29.813 22.313-75.574h-96.178l-13.33 57.44 35.081 47.947zM46.319 639.76h665.148v-40.561h-665.148v40.561zM666.087-17.947h-574.415v571.093h574.388v-571.093h0.027zM356.553 147.732v46.027h-75.876l15.288 26.64 22.288-12.8-9.146 79.546-73.863-31.894 20.623-11.839-54.928-95.681h155.613zM504.709 193.759h-49.457l0.616 24.4-65.925-45.974 63.457-49.306 0.643 24.852h128.256l-70.967 130.853-40.765-21.84 34.142-62.986zM391.526 372.586l30.226-40.612-19.9-15.387 77.564-21.494-1.905 80.026-19.202-14.852-67.75 91.066-85.236-120.721 37.898-26.452 48.304 68.426z" />
<glyph unicode="&#xe910;" glyph-name="17" horiz-adv-x="1521" d="M1515.429 454.811l-108.418 291.979c-13.666 37.035-49.594 61.91-89.126 61.91h-72.806l-16.636 76.677c-9.509 43.234-48.406 74.624-92.97 74.624h-571.6c-52.285 0-95.068-42.642-95.068-94.76v-563.23h-20.477c-17.548 0-31.808 14.216-31.808 31.706v360.088c0 52.118-42.783 94.76-95.068 94.76h-115.866c-41.592 0-77.837-26.375-90.592-65.74-13.943-43.234-95.068-295.532-113.488-352.981-0.911-3.277-1.505-6.554-1.505-9.792v-221.5c0-52.119 42.781-94.761 95.068-94.761h45.158c14.577-61.911 69.796-107.789 136.066-107.789 66.23 0 121.807 46.194 136.066 107.789h344.029c14.576-61.911 69.796-107.789 136.066-107.789 66.232 0 121.806 46.194 136.066 107.789h94.793c52.285 0 95.068 42.642 95.068 94.761v80.229l39.81-57.762c17.823-25.743 46.937-41.182 78.43-41.182h89.72c52.288 0 95.071 42.642 95.071 94.761v207.287c-0.041 11.293-2.101 22.268-5.983 32.929zM532.383 865.24c0 17.491 14.26 31.666 31.808 31.666h571.597c14.857 0 27.929-10.384 30.898-24.874l113.488-520.863c2.654-11.846-0.319-23.69-8.043-33.166-7.446-9.476-18.695-14.807-30.896-14.807h-708.854v562.045zM205.863 725.153h115.864c17.548 0 31.808-14.214 31.808-31.666v-222.685h-252.524l74.549 232.437c4.199 13.030 16.36 21.913 30.303 21.913zM276.887-0.945c-42.186 0-76.649 34.351-76.649 76.399 0 42.051 34.463 76.402 76.649 76.402s76.648-34.351 76.648-76.402c0-42.048-34.462-76.399-76.648-76.399zM893.326-0.945c-42.186 0-76.648 34.351-76.648 76.399 0 42.051 34.462 76.402 76.648 76.402s76.648-34.351 76.648-76.402c0-42.048-34.421-76.399-76.648-76.399zM1154.765 138.55c0-17.493-14.26-31.665-31.77-31.665h-93.88c-14.576 61.592-69.834 107.789-136.066 107.789-66.229 0-121.806-46.197-136.066-107.789h-344.029c-14.576 61.592-69.834 107.789-136.066 107.789-66.231 0-121.806-46.197-136.067-107.789h-45.474c-17.548 0-31.769 14.213-31.769 31.665v216.447l16.914 52.71h272.727v-74.032c0-52.116 42.78-94.758 95.068-94.758h706.478v-100.367zM1458.112 214.633c0-17.452-14.26-31.665-31.77-31.665h-89.72c-10.418 0-20.202 5.015-26.144 13.622l-34.184 49.471c17.548 6.2 32.958 17.177 45.158 31.984 19.608 24.281 27.054 55.67 20.518 86.151l-82.909 380.817h59.14c13.072 0 25.272-8.291 29.711-20.729 112.895-306.469 110.2-292.572 110.2-302.955v-206.696zM1049.594 732.576c-4.16 16.899-21.074 27.559-38.028 23.414-16.952-4.146-27.648-21.005-23.488-37.904l59.14-250.206c4.157-16.858 21.074-27.519 38.026-23.374 16.955 4.146 27.651 21.004 23.491 37.903l-59.14 250.167zM878.194 732.576c-4.16 16.899-21.074 27.559-38.028 23.414-16.914-4.146-27.607-21.005-23.45-37.904l59.102-250.206c4.157-16.858 21.112-27.519 38.026-23.374 16.916 4.146 27.651 21.004 23.491 37.903l-59.14 250.167zM707.072 732.576c-4.16 16.899-21.074 27.559-38.028 23.414-16.914-4.146-27.61-21.005-23.491-37.904l59.14-250.206c4.16-16.858 21.074-27.519 38.028-23.374 16.914 4.146 27.61 21.004 23.491 37.903l-59.14 250.167z" />
<glyph unicode="&#xe911;" glyph-name="18" d="M819.2 960c28.29 0 51.2-22.912 51.2-51.2v-102.4h102.4c28.29 0 51.2-22.912 51.2-51.2s-22.91-51.2-51.2-51.2h-102.4v-102.4c0-28.286-22.91-51.2-51.2-51.2s-51.2 22.914-51.2 51.2v102.4h-102.4c-28.29 0-51.2 22.912-51.2 51.2s22.91 51.2 51.2 51.2h102.4v102.4c0 28.288 22.91 51.2 51.2 51.2zM164.352 833.12l-61.184-15.296c4.48-115.2 28.288-220.928 68.448-314.849l103.488 126.177c17.504 22.496 18.944 25.344 19.68 27.296 1.216 3.36 1.728 6.912 1.504 10.496-0.16 2.112-0.768 5.248-11.584 32.288l-36.416 90.976c-7.36 18.368-11.84 29.472-15.808 37.568-1.824 3.744-3.136 5.952-4.032 7.264-0.8 1.152-1.184 1.536-1.216 1.568-3.584 3.392-8.064 5.696-12.928 6.624-0.064 0-0.608 0.128-1.984 0.064-1.568-0.064-4.128-0.288-8.224-0.96-8.928-1.536-20.544-4.416-39.744-9.216zM222.72 403.808l131.966 160.898c0.29 0.352 0.546 0.672 0.833 1.024 1.024 1.311 2.017 2.591 3.041 3.901 12.704 16.258 25.47 32.611 32.447 51.841 6.079 16.768 8.608 34.624 7.393 52.416-1.376 20.416-9.155 39.648-16.831 58.816-0.611 1.536-1.219 3.040-1.826 4.576l-37.024 92.512c-6.527 16.288-12.447 31.104-18.367 43.168-6.4 13.024-14.4 26.272-26.624 37.888-17.888 16.992-40.288 28.448-64.544 32.992-16.576 3.104-32 1.824-46.304-0.576-13.248-2.24-28.704-6.112-45.76-10.4-0.544-0.128-1.088-0.288-1.632-0.416l-100.736-25.184c-22.752-5.696-38.752-26.176-38.752-49.664 0-176.48 40.736-336.865 115.328-472.672 0.288-0.546 0.576-1.089 0.896-1.632 38.624-69.984 86.272-133.376 141.952-189.088 63.968-63.969 138.112-117.313 220.67-158.56 0.611-0.321 1.219-0.608 1.826-0.928 128.799-64 278.016-98.72 440.928-98.72 23.487 0 43.967 16.002 49.664 38.782l25.153 100.738 0.416 1.632c4.256 17.026 8.127 32.512 10.4 45.759 2.43 14.305 3.71 29.73 0.573 46.305-4.543 24.224-15.998 46.657-32.99 64.512-11.616 12.223-24.866 20.224-37.888 26.624-12.066 5.953-26.849 11.841-43.168 18.367l-82.753 33.12c-1.761 0.707-3.519 1.41-5.246 2.113-21.794 8.769-43.619 17.568-66.563 18.272-19.965 0.608-39.806-3.454-57.952-11.902-20.797-9.697-37.407-26.402-53.982-43.008-1.314-1.314-2.625-2.656-3.936-3.97-0.034 0-0.034-0.031-0.065-0.031l-130.082-129.44c-60.447 33.792-114.91 75.039-162.59 122.72-40.896 40.929-77.056 86.818-107.872 137.216zM591.776 97.505c87.617-34.048 184.863-54.272 290.048-58.337l15.295 61.184c4.799 19.2 7.649 30.816 9.185 39.711 0.703 4.13 0.928 6.69 0.99 8.257 0.065 1.44-0.061 1.952-0.061 1.983-0.898 4.864-3.202 9.346-6.595 12.93-0.031 0.031-0.416 0.447-1.567 1.215-1.311 0.898-3.488 2.208-7.233 4.031-8.096 4-19.2 8.448-37.567 15.811l-81.183 32.478c-30.915 12.353-34.56 13.025-36.929 13.090-4 0.126-7.97-0.672-11.585-2.403-2.144-0.99-5.246-3.038-28.798-26.59l-0.099-0.096-103.902-103.264z" />
<glyph unicode="&#xe912;" glyph-name="19" horiz-adv-x="1707" d="M1690.395 467.497l-169.445 293.015c-11.831 20.449-33.812 33.152-57.382 33.152h-328.12v83.213c0 45.811-37.209 83.124-82.893 83.124h-747.077c-8.828 0-17.258-3.497-23.481-9.738l-272.287-273.052c-6.223-6.241-9.71-14.695-9.71-23.503v-517.952c0-36.693 29.749-66.526 66.339-66.526h77.948c15.448-75.909 82.494-133.185 162.692-133.185 80.243 0 147.376 57.409 162.736 133.407 1.236-0.133 2.471-0.222 3.751-0.222h173.155c18.316 0 33.191 14.872 33.191 33.283 0 18.371-14.875 33.287-33.191 33.287h-173.155c-1.28 0-2.516-0.089-3.751-0.222-15.316 76.042-82.449 133.448-162.736 133.448-80.155 0-147.244-57.317-162.692-133.226h-77.948v504.098l252.866 253.577h733.351c9.137 0 16.596-7.48 16.596-16.643v-741.121h-120.361c-18.319 0-33.195-14.872-33.195-33.287 0-18.367 14.831-33.283 33.195-33.283h248.76c15.404-75.909 82.493-133.185 162.693-133.185 80.196 0 147.244 57.32 162.649 133.185h72.428c54.91 0 99.577 44.793 99.577 99.854v281.771c0 5.932-1.546 11.687-4.502 16.732zM306.935 202.458c54.953 0 99.665-44.838 99.665-99.946 0-55.105-44.711-99.942-99.665-99.942-54.952 0-99.664 44.838-99.664 99.942 0 55.108 44.712 99.946 99.664 99.946zM1463.569 727.138l146.364-253.002h-216.542v253.002h70.178zM1360.2 2.526c-54.951 0-99.666 44.838-99.666 99.942 0 55.108 44.715 99.946 99.666 99.946s99.663-44.838 99.663-99.946c0-55.105-44.667-99.942-99.663-99.942zM1595.32 135.755h-72.428c-15.404 75.909-82.497 133.229-162.649 133.229-80.2 0-147.289-57.32-162.693-133.229h-62.058v591.383h191.56v-253.002c0-36.693 29.747-66.526 66.338-66.526h235.209v-238.483c-0.044-18.412-14.961-33.372-33.28-33.372zM706.294 609.137c9.137-15.892 29.44-21.337 45.288-12.172 15.845 9.206 21.316 29.522 12.138 45.456l-82.097 142.568c-11.476 19.962-32.044 31.869-54.996 31.869s-43.52-11.906-55.040-31.869l-78.964-137.123c-8.561 5.4-19.463 6.816-29.658 2.877-17.084-6.639-25.515-25.938-18.893-43.022l17.524-45.281c5.076-13.056 17.565-21.2 30.894-21.2 3.181 0 6.359 0.44 9.537 1.417l46.080 13.807c17.565 5.27 27.542 23.815 22.289 41.387-2.826 9.605-9.667 16.91-18.053 20.716l74.284 128.978 79.667-138.406zM857.115 470.419c9.312 4.338 16.463 12.879 18.582 23.723 3.529 18.016-8.168 35.499-26.173 39.042l-47.537 9.339c-16.995 3.362-33.676-6.95-38.311-23.637l-13.022-46.473c-4.943-17.705 5.342-36.076 22.951-41.032 3.004-0.843 6.004-1.283 9.004-1.283 6.489 0 12.711 1.946 17.964 5.356l28.955-50.326h-108.271c-18.316 0-33.191-14.872-33.191-33.287 0-18.367 14.831-33.283 33.191-33.283h113.125c22.951 0 43.52 11.906 54.996 31.867 11.476 19.965 11.476 43.776 0 63.737l-32.263 56.259zM525.551 291.645c6.4-5.844 14.432-8.765 22.422-8.765 8.96 0 17.876 3.632 24.453 10.755l32.748 35.765c11.697 12.793 11.609 32.399-0.13 45.104l-32.751 35.366c-12.448 13.455-33.457 14.251-46.875 1.724-7.591-7.079-11.124-16.862-10.506-26.467h-91.276l39.946 69.359c9.134 15.889 3.707 36.25-12.138 45.411-15.848 9.206-36.151 3.721-45.288-12.172l-42.325-73.564c-11.479-19.961-11.479-43.773 0-63.693 11.476-19.961 32.041-31.867 55.040-31.867h96.13c-0.792-9.738 2.737-19.784 10.551-26.955zM830.587 102.468c0-18.367-14.875-33.283-33.191-33.283s-33.191 14.916-33.191 33.283c0 18.371 14.831 33.287 33.191 33.287 18.316 0 33.191-14.916 33.191-33.287zM340.083 102.468c0-18.367-14.83-33.283-33.192-33.283-18.317 0-33.192 14.872-33.192 33.283 0 18.371 14.875 33.242 33.192 33.242 18.361 0 33.192-14.872 33.192-33.242zM1393.391 102.468c0-18.367-14.831-33.283-33.191-33.283-18.319 0-33.191 14.872-33.191 33.283 0 18.371 14.872 33.242 33.191 33.242 18.316 0 33.191-14.872 33.191-33.242z" />
<glyph unicode="&#xe913;" glyph-name="20" horiz-adv-x="1050" d="M1047.058 755.418h-196.037l-173.852 173.854c-19.638 19.915-46.093 30.728-74.255 30.728-27.886 0-54.341-10.812-74.255-30.728l-50.793-50.793-5.558 5.556c-19.638 19.915-46.090 30.728-74.255 30.728-27.886 0-54.339-10.812-74.255-30.728l-128.616-128.617h-195.18v-45.536h91.051v-637.316h68.294c0-75.387 61.178-136.566 136.566-136.566s136.589 61.179 136.589 136.566h182.080c0-75.387 61.179-136.566 136.566-136.566 75.389 0 136.566 61.179 136.566 136.566h68.296v637.316h91.052v45.536zM560.817 897.113c22.479 22.48 62.011 22.48 84.49 0l141.696-141.695h-186.079l-90.921 90.902 50.813 50.793zM355.935 851.598c22.479 22.48 62.034 22.48 84.49 0l96.182-96.158h-276.831l96.159 96.158zM295.91-18.486c-50.087 0-91.050 40.965-91.050 91.052h182.082c0.020-50.086-40.965-91.052-91.031-91.052zM751.145-18.486c-50.066 0-91.052 40.965-91.052 91.052h182.103c0-50.086-40.986-91.052-91.052-91.052zM910.49 118.080h-773.924v591.802h773.924v-591.802zM751.145 300.183v227.617h-455.235v-227.617h455.235zM341.427 482.286h364.204v-136.566h-364.204v136.566z" />
<glyph unicode="&#xe914;" glyph-name="21" horiz-adv-x="1161" d="M1043.34 609.821l-344.61-0.53-105.953 317.863c-6.007 19.602-25.122 32.846-46.421 32.846s-40.414-13.244-46.967-32.846l-105.95-317.863-344.064 0.53c-21.299 0-40.414-13.244-46.967-32.846s0.546-41.322 18.022-53.507l279.074-196.015-107.042-317.335c-6.554-19.599 0.546-41.322 18.022-53.507s40.414-12.186 57.89 0l277.982 197.079 277.985-197.079c8.738-6.356 18.569-9.004 28.945-9.004s20.207 3.181 28.945 9.004c17.476 12.186 24.576 33.908 18.022 53.507l-107.042 317.335 279.074 196.015c17.476 12.185 24.576 33.906 18.022 53.507s-25.668 32.846-46.967 32.846z" />
<glyph unicode="&#xe915;" glyph-name="22" horiz-adv-x="1161" d="M1043.34 609.821l-344.61-0.53-105.953 317.863c-6.007 19.602-25.122 32.846-46.421 32.846s-40.414-13.244-46.967-32.846l-105.95-317.863-344.064 0.53c-21.299 0-40.414-13.244-46.967-32.846s0.546-41.322 18.022-53.507l279.074-196.015-107.042-317.335c-6.554-19.599 0.546-41.322 18.022-53.507s40.414-12.186 57.89 0l277.982 197.079 277.985-197.079c8.738-6.356 18.569-9.004 28.945-9.004s20.207 3.181 28.945 9.004c17.476 12.186 24.576 33.908 18.022 53.507l-107.042 317.335 279.074 196.015c17.476 12.185 24.576 33.906 18.022 53.507s-25.668 32.846-46.967 32.846zM706.376 384.668c-17.476-12.185-24.579-33.906-18.022-53.507l70.997-210.321-184.050 130.328c-17.476 12.186-40.414 12.186-57.89 0l-184.047-130.328 70.997 210.321c6.554 19.601-0.546 41.322-18.022 53.507l-184.593 129.264 227.738-0.53c21.299 0 40.414 13.244 46.967 32.846l69.905 210.849 69.906-210.319c6.553-19.601 25.668-32.846 46.967-32.846l227.741 0.53-184.593-129.794z" />
<glyph unicode="&#xe916;" glyph-name="23" d="M546.133 960h-68.267v-477.867h-477.867v-68.267h477.867v-477.867h68.267v477.867h477.867v68.267h-477.867v477.867z" />
<glyph unicode="&#xe917;" glyph-name="24" d="M512 728c-110.4 0-200-89.6-200-200s89.6-200 200-200c110.4 0 200 89.6 200 200s-89.6 200-200 200zM512 408c-66.133 0-120 53.867-120 120s53.867 120 120 120c66.133 0 120-53.867 120-120s-53.867-120-120-120zM512 960c-287.2 0-512-224.8-512-512 0-288 225.867-512 512-512 286.4 0 512 224.269 512 512 0 287.2-224.8 512-512 512zM512 16c-93.867 0-180 28.531-250.133 77.6 47.2 93.331 144.266 154.4 250.133 154.4s203.2-61.069 250.131-154.4c-70.131-49.069-156.264-77.6-250.131-77.6zM824.531 146.931c-26.131 45.338-61.6 84.8-105.331 115.469-60.8 42.931-132.533 65.6-207.2 65.6s-146.4-22.669-207.2-65.6c-43.467-30.669-79.2-69.869-105.333-115.469-74.4 77.338-119.467 182.936-119.467 301.069 0 242.133 189.867 432 432 432 242.131 0 432-189.867 432-432 0-118.133-45.069-223.731-119.469-301.069z" />
<glyph unicode="&#xe918;" glyph-name="25" d="M1020.998 139.002c6.202-15.002 2.4-32.403-9.197-43.802-7.603-7.398-17.6-11.2-27.802-11.2-5.402 0-11.002 1.203-16.198 3.398l-214.598 94.605c-27.002-10.202-54.605-18.003-83.002-23.206-28.998-47.795-70.602-88.397-121.002-117.798-56.4-32.998-121.4-50.598-188.2-50.995-1 0-1.999-0.205-3-0.205-46.2 0-91 8-133.4 23.802l-168.4-74.202c-5.2-2.195-10.6-3.398-16.2-3.398-10.2 0-20.2 3.802-27.8 11.2-11.6 11.398-15.4 28.602-9.2 43.802l58.4 144.595c-40.2 54.605-61.4 118.202-61.4 185.403 0 107.201 55.6 207 149.6 269.201 8.6 95.6 53.4 184.4 128 252.6 82.6 75.6 192 117.2 308.4 117.2s225.802-41.6 308.4-117.2c83.597-76.4 129.6-178.4 129.6-287 0-18-1.6-38.399-4.403-57.599-3.2-21.8-23.597-37-45.395-33.6-21.798 3.2-37.005 23.6-33.6 45.4 2.195 15.2 3.597 31.8 3.597 45.8-0.198 178.8-160.8 324.2-358.198 324.2-197.4 0-358-145.4-358-324.2 0-156.6 143.8-324.203 358-324.203 53.2 0 104.4 10.4 152.202 30.803 10.202 4.403 21.798 4.198 31.795-0.198l140.006-61.6-47.206 116.602c-8.198 20.397 1.6 43.796 22.003 51.997s43.802-1.6 52-22l84.198-208.198zM563.2 152c-110.8 5.203-213.4 48.403-291 123.2-62.4 60-103.6 136.4-118.4 216.2-47-45.999-74-106.4-74-170.4 0-55.796 19.999-108.801 57.599-153 9.601-11.398 12.2-27.2 6.6-40.998l-30-74.598 93.6 41.197c10.2 4.397 21.6 4.602 31.8 0.198 36.8-15.597 76.001-23.597 116.801-24 0.6 0 1 0 1.599 0 79 0.205 153.4 31.002 205.4 82.202z" />
<glyph unicode="&#xe919;" glyph-name="26" horiz-adv-x="1650" d="M1177.264 945.521c24.32 21.281 61.286 18.816 82.569-5.505l375.467-453.485c19.302-22.062 19.302-55.002 0-77.064l-375.467-453.483c-21.282-24.32-58.249-26.789-82.569-5.507s-26.783 58.249-5.507 82.569l290.554 356.437h-1403.798c-32.316 0-58.514 26.2-58.514 58.516s26.198 58.514 58.514 58.514h1403.798l-290.554 356.439c-21.276 24.321-18.813 61.288 5.507 82.568z" />
<glyph unicode="&#xe91a;" glyph-name="27" horiz-adv-x="1075" d="M547.729 585.489c1.611-7.393 7.747-12.955 15.249-13.815l262.753-29.882c0.662-0.067 1.324-0.109 1.987-0.109 6.775 0 12.933 3.86 15.889 9.952l125.662 259.399c4.26 8.784 0.573 19.332-8.189 23.592-4.965 2.405-10.769 2.361-15.669-0.132l-76.093-38.599-59.542 102.312c-20.391 38.201-60.247 61.992-103.547 61.793h-294.291c-43.916-0.11-84.634-23.106-107.387-60.69l-54.731-88.938c-5.053-8.21-2.582-18.979 5.562-24.144l194.207-123.585c2.825-1.789 6.113-2.76 9.467-2.76 1.457 0 2.935 0.177 4.349 0.551 4.722 1.193 8.716 4.282 11.078 8.52l74.151 133.429 81.215-153.6-73.931-44.36c-6.511-3.927-9.8-11.52-8.189-18.934zM452.722 702.476l-163.707 104.166 45.727 74.284c16.331 27.079 45.616 43.652 77.218 43.741h71.68l43.742-87.834-74.66-134.356zM662.356 627.067c8.033 4.833 10.88 15.095 6.511 23.371l-144.993 274.25h182.356c30.653 0.044 58.813-16.971 73.027-44.138l67.927-116.746c4.724-8.076 14.897-11.056 23.24-6.84l44.247 22.422-97.345-201.071-198.577 22.576 43.609 26.175zM880.374 68.413l123.587 211.753 36.722 59.32c23.747 38.356 25.004 86.555 3.289 126.102l-57.069 113.987c-4.349 8.718-14.964 12.269-23.682 7.9-0.352-0.176-0.705-0.353-1.036-0.551l-211.862-123.587c-8.298-4.833-11.211-15.427-6.533-23.834l73.667-132.746h-164.193v70.622c0 9.754-7.9 17.655-17.655 17.655-4.987 0-9.731-2.097-13.065-5.782l-176.551-194.208c-5.76-6.333-6.135-15.867-0.927-22.642l176.551-229.516c5.958-7.724 17.038-9.16 24.762-3.2 4.325 3.331 6.863 8.496 6.885 13.969v52.965h123.587c43.542-1.080 83.818 22.975 103.525 61.793zM783.029 441.445l180.656 105.424 48.993-97.809c15.824-28.513 15.007-63.316-2.096-91.057l-31.78-51.2h-120.96l-74.813 134.642zM635.607 41.931c-9.754 0-17.654-7.9-17.654-17.655v-18.714l-135.946 176.662 135.946 149.494v-42.614c0-9.755 7.9-17.655 17.654-17.655h322.362l-108.293-185.667c-13.594-27.609-42.063-44.756-72.827-43.851h-141.242zM8.364 627.198l87.283-54.135-58.262-116.656c-21.12-38.378-20.988-84.9 0.309-123.167l98.251-169.667 53.715-93.065c23.062-39.194 64.993-63.449 110.478-63.889h70.622c9.754 0 17.654 7.9 17.654 17.654v247.173c0 9.755-7.9 17.655-17.654 17.655h-131.907l88.055 152.805 72.805-28.027c9.093-3.509 19.311 1.038 22.82 10.151 1.698 4.458 1.545 9.402-0.442 13.727l-105.931 229.518c-3.045 6.642-9.865 10.704-17.147 10.262l-282.483-17.655c-9.732-0.596-17.126-8.982-16.53-18.714 0.353-5.716 3.465-10.902 8.32-13.904l0.044-0.067zM353.126 41.929h-52.966c-32.905 0.309-63.227 17.855-79.933 46.213l-48.464 83.971 50.009 81.678h131.355v-211.862zM289.191 641.478l82.627-179.024-46.3 17.831c-8.122 3.113-17.28-0.131-21.627-7.658l-152.718-264.96-82.891 143.229c-15.25 27.851-15.007 61.594 0.596 89.225l65.655 131.598c4.105 8.187 1.28 18.14-6.488 22.951l-54.025 33.413 215.172 13.396z" />
<glyph unicode="&#xe91b;" glyph-name="28" horiz-adv-x="819" d="M657.741 448.003l-529.74 353.159v-706.319l529.74 353.16zM764.78 515.082c47.882-31.921 47.882-102.3 0-134.221l-626.639-417.72c-53.58-35.761-125.4 2.701-125.4 67.080v835.501c0 64.38 71.82 102.84 125.4 67.080l626.639-417.719z" />
<glyph unicode="&#xe91c;" glyph-name="29" horiz-adv-x="1434" d="M1146.842 164.796c-36.943 0-66.966-30.022-66.966-66.964s30.024-66.964 66.966-66.964c36.941 0 66.964 30.022 66.964 66.964s-30.024 66.964-66.964 66.964zM1146.842 75.51c-12.315 0-22.321 10.008-22.321 22.321s10.006 22.321 22.321 22.321c12.314 0 22.321-10.008 22.321-22.321s-10.008-22.321-22.321-22.321zM438.134 164.796c-36.943 0-66.964-30.022-66.964-66.964s30.022-66.964 66.964-66.964c36.943 0 66.964 30.022 66.964 66.964s-30.022 66.964-66.964 66.964zM438.134 75.51c-12.315 0-22.321 10.008-22.321 22.321s10.006 22.321 22.321 22.321c12.314 0 22.321-10.008 22.321-22.321s-10.008-22.321-22.321-22.321zM557.74 598.912c10.528-6.436 24.255-3.087 30.693 7.439l49.591 81.213c3.907 6.362 10.119 7.069 12.611 7.069 2.493 0 8.706-0.669 12.612-7.069l28.943-47.507-19.866 5.357c-11.868 3.198-24.144-3.833-27.382-15.737-3.236-11.904 3.831-24.182 15.737-27.382l71.615-19.345c1.934-0.521 3.907-0.78 5.84-0.78 9.822 0 18.862 6.547 21.54 16.517l19.347 71.615c3.236 11.904-3.833 24.182-15.737 27.38-11.868 3.2-24.144-3.831-27.344-15.735l-5.209-19.309-29.353 48.104c-10.863 17.857-29.836 28.496-50.707 28.496 0 0 0 0-0.038 0-20.869 0-39.806-10.639-50.707-28.423l-49.591-81.213c-6.436-10.528-3.125-24.255 7.404-30.691zM775.933 502.484l52.864-86.794c4.055-6.659 1.526-12.648 0.261-14.918-1.265-2.268-5.096-7.552-12.872-7.552h-56.25l14.433 14.435c8.706 8.706 8.706 22.842 0 31.548-8.704 8.706-22.842 8.706-31.548 0l-52.454-52.456c-8.706-8.706-8.706-22.842 0-31.585l52.454-52.454c4.354-4.354 10.083-6.511 15.775-6.511s11.421 2.195 15.773 6.511c8.706 8.706 8.706 22.842 0 31.585l-14.247 14.247h56.064c21.763 0 41.108 11.348 51.785 30.321 10.677 19.011 10.267 41.407-1.079 60.008l-52.866 86.757c-6.436 10.527-20.163 13.875-30.691 7.439-10.491-6.325-13.839-20.052-7.404-30.58zM443.418 482.058l19.604 4.799-29.129-47.916c-11.308-18.601-11.718-41.035-1.004-60.008 10.677-18.973 30.022-30.283 51.785-30.283l101.637 0.075c12.351 0 22.321 10.008 22.321 22.321s-10.006 22.321-22.321 22.321l-101.6-0.075c-7.776 0-11.607 5.246-12.872 7.516-1.265 2.268-3.796 8.221 0.259 14.918l29.242 48.065 4.837-19.828c2.492-10.194 11.607-17.039 21.651-17.039 1.749 0 3.535 0.186 5.32 0.633 11.979 2.939 19.309 14.991 16.406 26.97l-17.522 72.062c-2.939 11.979-14.991 19.345-26.97 16.406l-72.062-17.56c-11.979-2.901-19.345-14.993-16.406-26.972 2.753-11.979 14.845-19.308 26.824-16.406zM1412.395 427.409l-90.216 167.559c-15.587 28.981-45.722 46.95-78.609 46.95h-165.477v206.474c0 61.533-50.075 111.608-111.607 111.608h-558.039c-52.603 0-101.338-26.191-130.357-70.090l-252.084-381.325c-29.39-44.421-34.152-100.076-12.798-148.849l83.52-190.662c24.926-56.846 81.065-93.565 143.118-93.565h38.059c10.9-78.72 78.609-139.51 160.268-139.51 81.661 0 149.332 60.79 160.27 139.51h388.171c10.9-78.72 78.609-139.51 160.268-139.51 81.661 0 149.332 60.79 160.27 139.51h26.673c49.219 0 89.286 40.067 89.286 89.286v220.276c-0.038 14.732-3.721 29.353-10.714 42.337zM1377.611 393.591h-180.545c-6.175 0-11.16 5.023-11.16 11.16v89.286c0 6.139 4.985 11.162 11.16 11.162h122.732l53.274-98.959c2.159-3.942 3.683-8.259 4.54-12.648zM315.329 865.282c20.722 31.362 55.543 50.075 93.117 50.075h63.654c-7.774-7.627-14.843-16.146-21.019-25.447l-216.369-327.27c-4.13-6.25-11.087-10.008-18.601-10.008h-107.478l206.697 312.65zM137.613 186.969l-83.52 190.626c-15.253 34.859-11.83 74.59 9.152 106.324l15.886 24.033h136.98c22.545 0 43.416 11.235 55.878 30.022l216.369 327.271c18.751 28.385 48.997 46.429 82.963 49.554 1.079 0.112 2.082 0.298 3.087 0.521h392.115c36.905 0 66.964-30.022 66.964-66.965v-635.233c-24.852-24.441-41.853-56.808-46.875-93.007h-388.209c-10.9 78.72-78.609 139.51-160.268 139.51-81.661 0-149.369-60.79-160.27-139.51h-38.021c-44.344 0.038-84.449 26.266-102.232 66.854zM438.135-19.357c-64.621 0-117.188 52.567-117.188 117.188s52.567 117.188 117.188 117.188c64.62 0 117.187-52.567 117.187-117.188s-52.567-117.188-117.187-117.188zM1146.842-19.357c-64.62 0-117.187 52.567-117.187 117.188s52.567 117.188 117.187 117.188c64.621 0 117.188-52.567 117.188-117.188s-52.567-117.188-117.188-117.188zM1333.786 120.153h-26.673c-10.9 78.72-78.609 139.51-160.27 139.51-24.59 0-47.879-5.543-68.75-15.365v352.978h165.477c16.444 0 31.51-9.003 39.286-23.475l12.909-23.958h-98.698c-30.766 0-55.803-25.037-55.803-55.805v-89.286c0-30.766 25.037-55.803 55.803-55.803h181.362v-184.153c0-24.629-20.014-44.643-44.643-44.643z" />
<glyph unicode="&#xe91d;" glyph-name="30" horiz-adv-x="805" d="M750.523 712.076h-39.935l-132.511 94.223 33.539 59.093c1.593 4.803 3.185 9.579 1.593 14.355-1.592 4.803-6.396 7.987-9.579 9.579l-244.329 70.263c-6.366 1.592-14.354-1.592-19.158-7.987l-55.881-100.619-83.052 46.33c-3.185 1.592-7.987 3.184-12.79 1.592-4.804-1.592-7.987-3.184-9.579-7.987l-99-178.841h-31.948c-27.145 0-47.894-20.751-47.894-47.894v-60.685c0-25.552 19.158-46.329 44.71-47.922l75.066-565.286c4.776-30.329 30.329-54.29 62.276-54.29h435.959c31.921 0 57.501 23.96 62.277 54.29l75.065 565.286c23.962 1.593 44.711 22.37 44.711 47.922v60.685c-1.619 27.143-23.988 47.894-49.541 47.894zM654.708 712.076h-129.355l36.724 65.486 92.631-65.486zM362.486 924.457l209.196-60.684-84.644-151.696h-103.803l62.277 79.841c3.183 4.803 4.803 9.579 3.183 15.974-1.592 4.803-6.368 9.578-12.763 9.578l-121.367 22.369 47.922 84.618zM199.619 860.589l81.433-44.71c1.592-1.592 4.804-3.184 6.396-3.184l116.565-22.369-62.275-78.25h-223.58l81.462 148.512zM669.090 167.538h-539.763l-51.078 389.631h645.129l-54.288-389.631zM132.539 135.591h533.367l-7.987-60.684h-517.393l-7.987 60.684zM616.392-30.487h-434.368c-15.974 0-28.736 11.17-30.328 27.145l-6.368 46.329h507.815l-6.368-46.329c-1.647-15.947-14.409-27.145-30.384-27.145zM766.498 605.090c0-9.579-6.368-15.974-15.974-15.974h-702.629c-9.579 0-15.974 6.396-15.974 15.974v60.684c0 9.579 6.368 15.973 15.974 15.973h702.629c9.579 0 15.974-6.394 15.974-15.973v-60.684z" />
<glyph unicode="&#xe91e;" glyph-name="31" d="M289.973 55.466h187.894c9.413 0 17.067 7.627 17.067 17.067s-7.654 17.067-17.067 17.067l-187.733-0.133 99.387 160.426 6.987-29.893c1.812-7.733 8.666-13.199 16.612-13.199 1.308 0 2.614 0.133 3.894 0.453 9.174 2.133 14.854 11.306 12.746 20.48l-16.453 70.533c-2.133 9.174-11.306 14.854-20.48 12.72l-70.533-16.453c-8.986-2.32-14.453-11.387-12.347-20.427 2.107-9.013 11.040-14.719 20.107-12.8l30.879 7.2-99.814-161.066c-6.507-10.48-6.853-23.679-0.853-34.48 5.999-10.774 17.36-17.494 29.706-17.494zM430.32 348.106c3.866-2.373 8.48-3.147 12.907-2.107 4.399 1.040 8.212 3.787 10.587 7.654l58.026 94.347 122.721-198.241-30.587 7.093c-9.174 2.133-18.347-3.574-20.506-12.746-2.134-9.174 3.574-18.373 12.746-20.508l70.507-16.453c1.28-0.294 2.586-0.427 3.894-0.453 7.92 0 14.826 5.467 16.612 13.199l16.428 70.535c1.839 9.039-3.84 17.92-12.854 20.027s-18.027-3.334-20.4-12.294l-7.041-30.16-122.533 197.973c-6.16 10.054-17.066 16.16-28.853 16.16s-22.693-6.106-28.853-16.16l-58.372-94.373c-4.906-8.027-2.427-18.533 5.573-23.493zM697.092 148.827l37.013-59.227h-146.774l22.054 22.054c5.787 6.773 5.386 16.88-0.933 23.173s-16.426 6.666-23.173 0.853l-51.2-51.2c-6.668-6.666-6.668-17.467 0-24.133l51.2-51.2c6.693-6.48 17.333-6.374 23.919 0.214 6.587 6.586 6.668 17.227 0.214 23.919l-22.053 22.187h146.773c12.32 0.053 23.653 6.773 29.599 17.573 5.974 10.772 5.654 23.947-0.853 34.427l-36.747 59.36c-5.040 7.813-15.413 10.186-23.333 5.279-7.92-4.933-10.454-15.28-5.707-23.28zM972.8 704c28.267 0 51.2 22.933 51.2 51.2v119.467c-0.053 47.093-38.241 85.28-85.333 85.333h-273.067c-47.094-0.053-85.28-38.24-85.333-85.333v-76.213l-43.707 29.2c-4.719 3.147-7.521 8.427-7.521 14.080v20.613c10.534 6.053 17.041 17.253 17.067 29.387v34.133c0.026 18.853-15.253 34.133-34.107 34.133h-68.267c-18.853 0-34.133-15.28-34.133-34.133v-34.133c0.026-12.133 6.533-23.333 17.067-29.387v-20.613c0.026-5.68-2.854-11.013-7.601-14.133l-59.733-39.894c-5.013 7.121-11.093 13.441-18 18.694l-17.386 13.067c15.999 14.027 21.601 36.507 14.080 56.4s-26.614 33.040-47.894 32.96h-136.533c-21.28 0.080-40.373-13.040-47.893-32.96-7.52-19.893-1.92-42.373 14.080-56.4l-17.387-13.067c-21.44-16.16-34.053-41.413-34.133-68.267v-85.333h-34.133c-18.853 0-34.133-15.28-34.133-34.133v-68.267c0-18.853 15.28-34.133 34.133-34.133h3.147l108.24-525.787c6.64-31.68 34.506-54.399 66.853-54.48h599.199c32.374 0.107 60.24 22.826 66.854 54.48l108.24 525.787h3.147c18.853 0 34.134 15.28 34.134 34.133v68.267c0 18.853-15.281 34.133-34.134 34.133h-102.4v51.2h85.387zM938.667 925.867c28.267 0 51.2-22.907 51.2-51.2v-119.467c0-9.44-7.627-17.067-17.067-17.067h-85.333v136.534c0 28.293 22.907 51.2 51.2 51.2zM375.467 652.8v34.133h221.866v-34.133h-221.866zM443.733 925.867h68.267v-34.133h-68.267v34.133zM437.947 799.173c14.292 9.413 22.905 25.413 22.853 42.56v15.867h34.133v-15.867c-0.053-17.093 8.507-33.094 22.774-42.507l72.133-48.187c4.721-3.147 7.521-8.426 7.521-14.080v-15.866h-221.867v17.067c-0.026 6.026-0.693 12.026-2.028 17.92l64.481 43.093zM153.6 874.667h136.533c9.413 0 17.067-7.653 17.067-17.067 0-9.44-7.627-17.067-17.067-17.067h-136.533c-9.44 0-17.067 7.653-17.067 17.067s7.653 17.067 17.067 17.067zM122.88 779.093l36.4 27.307h125.174l36.399-27.307c7.948-6.106 13.921-14.399 17.174-23.893h-232.32c3.253 9.466 9.227 17.787 17.173 23.893zM102.4 721.067h238.933v-68.267h-238.933v68.267zM845.040-2.56c-3.28-15.866-17.227-27.253-33.439-27.307h-599.201c-16.187 0.054-30.133 11.441-33.439 27.307l-106.827 518.827h879.707l-106.8-518.827zM989.867 550.4h-955.734v68.267h955.734v-68.267zM631.467 652.8v84.133c-0.107 14.374-6.293 28.027-17.067 37.547v100.186c0 28.293 22.933 51.2 51.2 51.2h204.8c-11.093-14.747-17.093-32.72-17.067-51.2v-221.867h-221.866zM802.133 857.6h-136.534c-9.44 0-17.066-7.653-17.066-17.067s7.652-17.067 17.066-17.067h136.534c9.44 0 17.066 7.627 17.066 17.067s-7.626 17.067-17.066 17.067zM802.133 789.333h-119.466c-9.413 0-17.067-7.654-17.067-17.067 0-9.44 7.627-17.066 17.067-17.066h119.466c9.44 0 17.067 7.654 17.067 17.066 0 9.413-7.627 17.067-17.067 17.067zM802.133 721.067h-119.466c-9.413 0-17.067-7.627-17.067-17.067s7.627-17.066 17.067-17.066h119.466c9.44 0 17.067 7.626 17.067 17.066s-7.627 17.067-17.067 17.067z" />
<glyph unicode="&#xe91f;" glyph-name="32" horiz-adv-x="1068" d="M260.413 687.759c-4.884-8.414-2.030-19.213 6.384-24.096l152.847-88.237c8.445-4.972 19.33-2.118 24.244 6.384l60.198 104.536c14.387 20.979-19.507 40.545-30.482 17.595l-51.488-89.119-122.367 70.612 127.956 221.517 178.798-309.871-61.109-35.189c-14.623-8.327-10.416-30.452 6.238-32.835l223.488-34.041c8.15-1.207 16.036 3.384 19.036 11.062l82.322 210.603c5.973 15.505-10.856 29.951-25.274 21.653l-61.226-35.335-143.196 248.145c-3.148 5.472-8.944 8.827-15.24 8.856h-203.807c-6.236 0-12.033-3.295-15.269-8.768l-152.052-263.473zM458.217 924.664h163.145l146.991-254.5c4.855-8.473 15.682-11.385 24.127-6.501l32.834 19.035-58.902-150.639-159.762 24.332 32.835 19.036c8.444 4.854 11.356 15.653 6.502 24.096l-187.771 325.142zM90.649 543.415c-16.447-2.529-20.595-24.361-6.179-32.717l61.168-35.306-142.608-246.998c-3.795-5.619-4.060-12.886-0.647-18.771l101.918-176.413c3.148-5.502 9.032-8.885 15.388-8.856h303.987c9.767-0.059 17.712 7.826 17.742 17.595v176.56c-0.029 9.769-8.003 17.654-17.742 17.595h-375.483l136.812 236.935c4.855 8.444 1.972 19.212-6.442 24.096l-32.894 19.007 159.819 24.332 58.816-150.581-32.865 18.976c-8.445 4.855-19.213 1.972-24.096-6.442l-60.344-104.477c-11.77-20.389 18.799-38.043 30.569-17.654l51.488 89.206 61.168-35.306c14.446-8.327 31.305 6.15 25.274 21.684l-82.264 210.603c-2.649 6.796-9.21 11.268-17.802 11.15l-224.783-34.218zM904.812 490.691c-4.678 8.122-15.359 11.504-24.098 6.444l-152.876-88.266c-8.414-4.884-11.298-15.653-6.442-24.096l60.314-104.477c11.769-20.389 42.338-2.736 30.569 17.654l-51.517 89.206 122.336 70.612 127.985-221.664h-357.917v70.641c0.060 9.945-8.15 17.977-18.094 17.712-5.208-0.146-10.062-2.589-13.299-6.649l-141.255-176.561c-5.148-6.444-5.148-15.594 0-22.038l141.255-176.561c10.445-12.974 31.422-5.59 31.422 11.064v70.641h286.452c6.355-0.029 12.21 3.354 15.388 8.856l101.888 176.413c3.148 5.473 3.119 12.181-0.029 17.683l-152.082 263.385zM617.86 256.434v-37.926c0.029-9.738 7.974-17.623 17.712-17.594h375.423l-81.586-141.255h-293.866c-9.798 0.029-17.742-7.914-17.712-17.711v-37.778l-100.975 126.132 101.004 126.132zM48.281 200.915h357.83v-141.255h-276.272l-81.558 141.255z" />
<glyph unicode="&#xe920;" glyph-name="33" horiz-adv-x="1609" d="M32.135 860.723c42.846 42.846 112.313 42.846 155.159 0l617.277-617.277 617.277 617.277c42.851 42.846 112.308 42.846 155.155 0s42.847-112.313 0-155.159l-694.853-694.857c-42.846-42.847-112.314-42.847-155.159 0l-694.857 694.857c-42.846 42.846-42.846 112.313 0 155.159z" />
<glyph unicode="&#xe921;" glyph-name="34" horiz-adv-x="2048" d="M1024-64l-886.81 896h1773.628l-886.818-896z" />
<glyph unicode="&#xe922;" glyph-name="35" d="M269.867 607.572c-9.013 7.6-22.481 6.453-30.081-2.56l-66.346-78.932-38.4 38.613c-8.32 8.372-21.813 8.399-30.187 0.106-8.373-8.321-8.427-21.813-0.107-30.188l54.827-55.040c4-4.080 9.44-6.373 15.147-6.4h1.92c5.973 0.295 11.547 3.068 15.36 7.68l80.427 96.641c7.6 9.013 6.453 22.479-2.56 30.079zM174.72 279.894l1.92 0.213c5.947 0.24 11.52 2.959 15.36 7.467l80.427 96.852c7.467 8.987 6.32 22.295-2.56 29.868-4.319 3.652-9.921 5.439-15.573 4.96-5.628-0.481-10.854-3.201-14.508-7.52l-66.346-78.934-38.4 38.613c-8.32 8.374-21.813 8.401-30.187 0.106-8.373-8.292-8.427-21.813-0.107-30.185l54.827-55.040c4-4.082 9.44-6.373 15.147-6.4zM269.867 199.68c-9.013 7.6-22.481 6.453-30.081-2.56l-66.346-78.934-38.4 38.615c-8.32 8.372-21.813 8.399-30.187 0.106s-8.427-21.813-0.107-30.188l54.827-55.040c4-4.080 9.44-6.373 15.147-6.4h1.92c5.973 0.293 11.547 3.092 15.36 7.68l80.427 96.641c7.6 9.013 6.453 22.479-2.56 30.079zM351.359 580.053h256c11.786 0 21.332 9.548 21.332 21.334s-9.546 21.332-21.332 21.332h-256c-11.788 0-21.334-9.546-21.334-21.332s9.546-21.334 21.334-21.334zM500.691 512c0 11.786-9.546 21.332-21.332 21.332h-128c-11.788 0-21.334-9.546-21.334-21.332 0-11.788 9.546-21.334 21.334-21.334h128c11.786 0 21.332 9.546 21.332 21.334zM863.787 436.267c3.279-1.948 7.039-2.988 10.879-2.988l-0.213-0.213c6.613-0.186 12.933 2.72 17.121 7.866 4.186 5.12 5.732 11.921 4.213 18.375-1.333 5.519-4.774 10.267-9.601 13.226-4.825 2.986-10.666 3.92-16.185 2.613-5.521-1.333-10.293-4.801-13.255-9.654-6.078-10.025-2.933-23.067 7.041-29.225zM955.734 411.517c-3.654 4.346-8.854 7.039-14.508 7.518-5.652 0.481-11.252-1.307-15.573-4.958-4.319-3.654-7.039-8.88-7.52-14.508-0.479-5.652 1.307-11.254 4.96-15.573 77.255-93.334 75.36-228.934-4.479-320.053-79.868-91.12-214.055-110.828-316.721-46.479-102.666 64.346-143.466 193.679-96.293 305.279s168.401 172.454 286.052 143.626c11.44-2.666 22.854 4.375 25.6 15.788 2.669 11.414-4.372 22.854-15.786 25.6-21.6 5.147-43.733 7.733-65.919 7.68-3.441 0-6.828-0.080-10.24-0.186v300.959c0 11.787-9.548 21.333-21.334 21.333h-142.266c-17.707 42.293-54.907 52.907-87.495 52.907h-53.572c-5.253 27.947-24.214 51.893-51.147 63.040-31.894 13.2-68.588 5.92-93.014-18.48-12.427-12.427-20.374-28.027-23.493-44.56h-28.561c-33.386 0-71.279-10.56-89.439-52.907h-113.653c-11.787 0-21.333-9.547-21.333-21.333v-858.88c0-11.786 9.547-21.334 21.333-21.334h682.667c2.32 0 4.561 0.373 6.666 1.067 8.215-0.694 16.507-1.067 24.908-1.067 111.946 1.147 213.252 66.613 260.293 168.212 47.014 101.601 31.414 221.2-40.133 307.309zM297.439 890.983c6.615 15.947 22.161 26.347 39.414 26.347 23.439 0 42.48-18.933 42.639-42.347-0.532-1.867-0.825-3.84-0.825-5.867 0-0.747 0.053-1.493 0.106-2.213-2.587-14.027-12.081-26.053-25.6-31.653-15.948-6.613-34.294-2.96-46.479 9.253-12.214 12.187-15.868 30.533-9.255 46.48zM166.827 775.676c0 63.36 27.733 72.107 57.599 72.107h31.441c0.639-1.947 1.36-3.867 2.134-5.787 13.226-31.867 44.345-52.667 78.852-52.667 37.734 0 69.734 24.507 80.986 58.453h56.4c24.349 0 42.213-6.267 50.348-31.573 0-3.627 0.907-7.040 2.507-10.053 1.573-8.187 2.4-17.893 2.4-29.413v-27.306h-362.667v26.239zM42.667-21.338v816.214h82.32c-0.533-6.053-0.853-12.4-0.853-19.2v-47.573c0-11.786 9.547-21.334 21.333-21.334h405.333c11.788 0 21.334 9.548 21.334 21.334v48.64c0 6.4-0.266 12.4-0.748 18.133h111.28v-284.293c-134.746-24.852-236.8-142.934-236.8-284.881 0-104.505 55.362-196.080 138.32-247.040h-541.519zM714.666 298.666h80.214c11.786 0 21.334 9.548 21.334 21.334s-9.548 21.332-21.334 21.332h-45.439v33.28c0 11.788-9.548 21.334-21.334 21.334s-21.334-9.546-21.334-21.334v-34.56c-34.187-7.358-59.199-37.706-59.199-73.386 0-38.373 28.934-70.586 67.092-74.666h26.88c15.682-2.56 27.202-16.108 27.202-32 0-15.895-11.52-29.413-27.202-32h-80.212c-11.788 0-21.334-9.548-21.334-21.334s9.546-21.334 21.334-21.334h45.439v-33.28c0-11.786 9.548-21.332 21.334-21.332 5.812 0 11.387 2.374 15.387 6.56 4.026 4.186 6.187 9.841 5.947 15.626v33.706c34.185 7.361 59.199 37.708 59.199 73.388 0 38.373-28.934 70.586-67.095 74.666h-26.88c-15.679 2.587-27.199 16.108-27.199 32 0 15.895 11.52 29.413 27.199 32z" />
<glyph unicode="&#xe923;" glyph-name="36" horiz-adv-x="1065" d="M993.174 516.461c-4.133 116.67-51.827 225.739-135.569 308.709-87.822 86.953-204.497 134.831-328.538 134.831-250.528 0-455.249-197.497-464.079-443.539-38.216-16.851-64.987-54.729-64.987-98.791v-121.35c0-59.574 48.958-108.093 109.109-108.093 38.947 0 70.612 31.361 70.612 69.937v197.663c0 36.209-28.037 65.759-63.694 69.241 13.189 214.374 193.358 384.801 413.039 384.801 110.545 0 214.508-42.669 292.739-120.181 71.85-71.162 113.889-163.907 120.218-264.62-35.629-3.537-63.611-33.061-63.611-69.241v-197.663c0-36.514 28.488-66.232 64.567-69.325v-49.936c0-56.263-46.203-102.023-103.008-102.023h-76.292c-3.74 10.584-9.617 20.388-17.857 28.494-14.426 14.371-33.661 22.254-54.133 22.254h-78.625c-11.278 0-22.104-2.367-32.031-6.963-27.052-12.311-44.544-39.354-44.544-68.878 0-20.304 7.987-39.354 22.442-53.586 14.453-14.344 33.716-22.254 54.133-22.254h78.625c32.592 0 61.331 20.861 72.047 50.774h76.235c84.73 0 153.625 68.237 153.625 152.154v58.878c37.992 16.935 64.539 54.702 64.539 98.568v121.35c0 44.063-26.743 81.94-64.961 98.791zM129.103 455.825v-197.663c0-10.918-8.942-19.804-19.994-19.804-32.255 0-58.52 26.014-58.52 57.96v121.35c0 31.973 26.265 57.96 58.52 57.96 11.052 0 19.994-8.886 19.994-19.804zM717.083 6.466c-2.503-11.782-13.216-20.359-25.422-20.359h-78.625c-6.918 0-13.414 2.673-18.391 7.576-4.893 4.817-7.594 11.278-7.594 18.131 0 9.998 5.906 19.161 15.215 23.368 3.318 1.532 6.918 2.312 10.77 2.312h78.625c6.918 0 13.414-2.646 18.364-7.576 4.893-4.819 7.592-11.28 7.592-18.133 0.029-1.81-0.168-3.647-0.535-5.319zM1007.516 296.319c0-31.947-26.266-57.96-58.491-57.96-11.024 0-19.995 8.886-19.995 19.804v197.663c0 10.918 8.97 19.804 19.995 19.804 32.254 0 58.491-26.014 58.491-57.96v-121.35zM692.951 287.685c59.138 0 107.252 47.655 107.252 106.228v216.408c0 28.297-11.164 54.981-31.439 75.061s-47.186 31.138-75.786 31.138h-327.805c-59.138 0-107.252-47.653-107.252-106.226v-216.41c0-58.571 48.085-106.226 107.252-106.226h1.997v-56.095c0-21.389 12.88-40.385 32.788-48.378 6.412-2.562 13.105-3.844 19.714-3.844 13.779 0 27.22 5.431 37.063 15.487l94.206 92.801 142.010 0.055zM522.678 330.549l-101.939-100.405c-0.449-0.473-0.786-0.809-1.743-0.391-1.153 0.475-1.153 1.227-1.153 1.894v81.16c0 13.816-11.332 25.068-25.309 25.068h-27.304c-31.242 0-56.609 25.149-56.609 56.093v216.41c0 30.943 25.393 56.093 56.609 56.093h327.776c15.073 0 29.274-5.849 40.016-16.46 10.715-10.639 16.62-24.705 16.62-39.633v-216.41c0-30.943-25.422-56.093-56.635-56.093h-152.443c-6.722-0.055-13.132-2.675-17.885-7.326zM406.125 535.093c-20.584 0-37.345-16.601-37.345-36.989 0-20.386 16.761-36.987 37.345-36.987 20.613 0 37.372 16.601 37.372 36.987 0 20.388-16.759 36.989-37.372 36.989zM529.035 535.093c-20.584 0-37.345-16.601-37.345-36.989 0-20.386 16.761-36.987 37.345-36.987 20.611 0 37.372 16.601 37.372 36.987 0 20.388-16.761 36.989-37.372 36.989zM651.985 535.093c-20.584 0-37.345-16.601-37.345-36.989 0-20.386 16.761-36.987 37.345-36.987s37.372 16.601 37.372 36.987c0 20.388-16.759 36.989-37.372 36.989z" />
<glyph unicode="&#xe924;" glyph-name="37" horiz-adv-x="819" d="M803.145 823.493l-10.213 39.893c-11.626 45.413-59.334 73.733-104.8 62.107l-161.067-41.2-5.84 22.773c-9.492 37.093-48.56 60.32-85.733 50.8l-165.255-42.293c-37.12-9.493-60.319-48.56-50.799-85.76l5.84-22.773-78.24-20c-10.72-2.746-17.147-13.626-14.427-24.346 2.747-10.721 13.627-17.147 24.347-14.428l541.093 138.427c24.347 6.24 49.92-8.96 56.134-33.253l5.226-20.507-713.333-182.507c0 0-6 23.868-6.267 25.733-1.493 10.96-11.6 18.587-22.533 17.094s-18.587-11.6-17.093-22.533c0.453-3.333 12.107-49.601 12.107-49.601 2.32-9.039 10.453-15.039 19.36-15.039 1.653 0 57.493 14.053 57.493 14.053l52.373-534.026c3.6-37.147 34.293-65.227 71.546-65.599v-64.561c0-11.039 8.96-19.999 20-19.999h406.56c11.040 0 20 8.96 20 19.999v64.561c37.253 0.372 67.946 28.426 71.547 65.572l26.986 274.987c1.067 10.988-6.96 20.774-17.947 21.868-10.986 1.067-20.772-6.96-21.866-17.947l-26.986-274.987c-1.628-16.799-15.601-29.466-32.481-29.466h-445.066c-16.881 0-30.853 12.667-32.48 29.493l-52.987 540.187 9.893 2.533h606.374l-9.093-92.559c-1.067-10.988 6.96-20.774 17.946-21.84 10.96-1.067 20.774 6.96 21.868 17.946l11.226 114.534c1.12 11.493-8.347 21.946-19.893 21.946h-25.040l-4.668 9.708c-18.159 37.76-57.52 62.507-99.439 62.507-14.961 0-30.135-0.988-44.508 4.106l195.681 50.053c10.479 2.693 17.12 13.84 14.452 24.347zM261.466 862.826c4.159 7.013 10.772 11.973 18.666 14l165.253 42.267c2.534 0.64 5.067 0.96 7.601 0.96 5.412 0 10.72-1.44 15.493-4.267 7.013-4.16 11.972-10.773 14-18.667l5.813-22.773-224.294-57.387-5.813 22.773c-2.028 7.92-0.853 16.107 3.28 23.093zM619.653-24.001h-366.56v44.534h366.56v-44.534zM637.52 704.986c23.653 0 46.319-12.346 59.119-32.213h-401.867l212.053 54.187c15.708 4.081 32.427 2.56 47.148-4.239l16.372-7.574c21.627-9.974 44.027-10.16 67.174-10.16zM765.409 458.988c-4.186 10.054-16.053 15.014-26.134 10.827-10.080-4.186-14.986-16.053-10.825-26.134 4.159-10.052 16.053-15.014 26.132-10.825 10.054 4.186 15.014 16.079 10.827 26.132zM87.616 754.132c-4.187 10.054-16.027 15.014-26.107 10.801-10.080-4.188-14.987-16.055-10.827-26.134 4.16-10.054 16.053-15.014 26.133-10.8 10.027 4.186 15.013 16.053 10.8 26.132zM597.333 277.333v153.6h-341.333v-153.6h341.333zM296.393 394.58h260.547v-80.876h-260.547v80.876z" />
<glyph unicode="&#xe925;" glyph-name="38" horiz-adv-x="1575" d="M1458.769 94.321c0-16.985-13.785-30.77-30.77-30.77s-30.77 13.785-30.77 30.77c0 16.985 13.785 30.77 30.77 30.77s30.77-13.785 30.77-30.77zM1573.006 571.815l-153.847 369.231c-4.758 11.487-15.959 18.954-28.388 18.954h-1206.155c-12.431 0-23.631-7.467-28.39-18.954l-153.846-369.231c-1.518-3.61-2.379-7.63-2.379-11.815v-276.921c0-8.084 3.282-16.043 9.026-21.746 5.744-5.742 13.662-9.024 21.744-9.024h31.179l0.82-61.949c0.082-5.17 1.477-10.337 4.062-14.851l123.077-215.384c5.457-9.56 15.713-15.51 26.708-15.51h340.349c10.994 0 21.252 5.95 26.708 15.51l114.173 199.874h179.652l114.257-199.874c5.456-9.56 15.712-15.51 26.708-15.51h340.060c16.943 0 30.77 13.827 30.77 30.77s-13.827 30.77-30.77 30.77h-322.213l-114.218 199.877c-5.456 9.557-15.712 15.507-26.705 15.507h-215.387c-10.994 0-21.249-5.95-26.705-15.507l-114.257-199.877h-304.616l-110.277 192.985-0.657 53.169h91.897c16.985 0 30.769 13.785 30.769 30.77 0 16.983-13.785 30.767-30.769 30.767h-153.846v92.307h541.54c0-16.983 13.782-30.767 30.767-30.767h307.694c16.983 0 30.767 13.785 30.767 30.767h541.538v-92.307h-153.844c-16.985 0-30.77-13.785-30.77-30.767 0-16.985 13.785-30.77 30.77-30.77h92.307v-34.133c0-16.943 13.785-30.77 30.77-30.77 16.943 0 30.767 13.827 30.767 30.77v34.133h30.77c8.082 0 16.043 3.282 21.743 9.024 5.745 5.703 9.027 13.661 9.027 21.746v276.921c0 4.185-0.861 8.205-2.379 11.815zM205.128 898.462h1165.128l128.205-307.692h-1421.538l128.205 307.692zM910.769 436.922h-246.154v92.31h246.154v-92.31zM61.538 467.692v61.54h541.54v-61.54h-541.54zM972.306 467.692v61.54h541.538v-61.54h-541.538z" />
<glyph unicode="&#xe926;" glyph-name="39" horiz-adv-x="858" d="M686.479 288c-6.346 5.147-15.626 4.426-21.12-1.6l-239.839-247.441-226.881 234.241c101.814 72.052 231.734 91.599 350.24 52.64 4.081-1.6 8.667-1.467 12.641 0.399 4 1.841 7.039 5.28 8.426 9.44 1.386 4.16 1.014 8.719-1.093 12.613-2.080 3.867-5.654 6.72-9.893 7.867-12.961 4.32-26.161 7.946-39.521 10.88 55.894 27.227 97.414 77.093 114.081 136.96h24v-64c0.666-87.279-67.121-159.813-154.241-165.041-6.612 21.974-26.826 37.014-49.759 37.041h-56c-28.721 0-52-23.279-52-52 0-28.719 23.279-52 52-52h56c22.026 0.027 41.626 13.947 48.959 34.72 105.307 4.694 187.974 91.894 187.041 197.28v68.401c33.893 13.946 56 46.959 56 83.599v72c0.239 21.28-8.108 41.787-23.174 56.827-15.040 15.067-35.547 23.414-56.826 23.173h-24c0 119.28-96.721 216-216 216-119.281 0-216.001-96.72-216.001-216h-24c-21.28 0.241-41.786-8.106-56.826-23.173-15.067-15.040-23.414-35.547-23.174-56.827v-72c0-46.88 37.36-88 79.999-88h31.52c16.614-60.054 58.348-110.001 114.481-137.039-171.441-37.92-331.52-194.961-331.52-414.961 0-8.827 7.173-16 16-16s16 7.173 16 16c0 116.48 51.653 226.934 141.039 301.6l240.961-248.721c3.013-3.119 7.173-4.906 11.52-4.906s8.506 1.76 11.519 4.906l241.12 248.881c85.92-70.799 140.881-187.599 140.881-301.76 0-8.827 7.173-16 16-16s16 7.173 16 16c0 128.721-64.64 260.561-164.561 336zM453.521 240h-56c-11.040 0-20 8.96-20 20s8.96 20 20 20h56c11.040 0 20-8.96 20-20s-8.96-20-20-20zM713.521 664v-72c0-26.4-20.561-56-48-56h-25.361c1.014 8.561 1.546 17.147 1.6 25.76v150.24h24c12.773 0.214 25.093-4.773 34.107-13.839 9.014-9.041 13.947-21.388 13.654-34.161zM241.519 744c0 101.627 82.374 184 184.001 184s184-82.373 184-184v-55.52c-158.321 7.52-219.601 97.841-222.161 101.76-2.641 4.054-6.961 6.72-11.786 7.227-4.827 0.507-9.6-1.226-13.014-4.667-1.039-0.8-70.4-71.2-121.041-112.8v64zM185.519 536c-27.439 0-48 29.6-48 56v72c-0.293 12.8 4.667 25.201 13.734 34.267 9.066 9.066 21.44 14.026 34.266 13.733h24v-152c0-8.027 0.48-16.027 1.361-24h-25.361zM241.519 560v80c41.041 29.92 104.001 91.121 131.041 117.841 26.639-30.641 99.279-95.041 236.96-101.201v-94.88c0.479-101.627-81.494-184.399-183.121-184.879s-184.401 81.492-184.881 183.119z" />
<glyph unicode="&#xe927;" glyph-name="40" horiz-adv-x="1434" d="M406.25 54.282l-398.25 398.249 72.406 72.407 398.25-398.248 832.689 832.686 72.407-72.406-905.096-905.094-72.406 72.407z" />
<glyph unicode="&#xe928;" glyph-name="41" horiz-adv-x="1396" d="M942.192 932.734c-36.356 36.354-95.297 36.354-131.652 0s-36.354-95.296 0-131.651l213.451-213.447h-930.9c-51.413 0-93.091-41.679-93.091-93.091s41.678-93.091 93.091-93.091h976.077l-258.614-258.615c-36.354-36.355-36.354-95.296 0-131.65 36.355-36.352 95.296-36.352 131.647 0l394.957 394.95c36.352 36.355 36.352 95.296 0 131.651-0.41 0.403-0.81 0.802-1.219 1.195l-393.747 393.748z" />
<glyph unicode="&#xe929;" glyph-name="42" horiz-adv-x="1280" d="M543.918 444.708v239.393c1.605 133.199-93.020 247.995-223.8 271.598-130.781 23.528-259.397-51.058-304.172-176.439s7.388-264.866 123.355-329.839c115.967-64.97 261.785-36.431 344.88 67.517v-72.23c-0.261-247.808-200.556-448.596-447.75-448.86-16.492 0-29.85-13.391-29.85-29.924s13.358-29.924 29.85-29.924c280.142 0.3 507.153 227.871 507.488 508.708zM275.269 474.632c-84.514 0-160.707 51.059-193.057 129.311-32.35 78.287-14.477 168.36 45.297 228.282s149.623 77.84 227.718 45.41c78.095-32.43 128.991-108.811 128.991-193.533-0.148-115.656-93.617-209.318-208.95-209.469zM991.67 953.417c-92.611 0.598-179.026-46.719-228.613-125.157-49.551-78.438-55.334-176.963-15.263-260.675 40.074-83.715 120.335-140.831 212.421-151.155 92.050-10.286 182.907 27.681 240.404 100.47v-72.228c-0.261-247.808-200.553-448.599-447.749-448.86-16.494 0-29.852-13.391-29.852-29.924 0-16.535 13.358-29.924 29.852-29.924 280.105 0.297 507.151 227.907 507.451 508.708v239.391c-0.187 148.686-120.371 269.167-268.652 269.354zM991.67 474.632c-84.513 0-160.704 51.059-193.055 129.311-32.351 78.287-14.441 168.36 45.297 228.282 59.776 59.923 149.624 77.84 227.72 45.41 78.057-32.43 128.988-108.811 128.988-193.533-0.148-115.656-93.617-209.318-208.95-209.469z" />
<glyph unicode="&#xe92a;" glyph-name="43" horiz-adv-x="780" d="M369.713 960c-213.528 0-369.713-212.407-369.713-387.462 0-84.602 9.118-164.913 59.685-232.302l286.135-385.609c0.731-0.926 1.853-1.317 2.633-2.194 2.855-3.277 6.416-5.861 10.414-7.563s8.33-2.477 12.67-2.267c4.34 0.21 8.577 1.404 12.39 3.486s7.107 5.003 9.63 8.538c92.904 124.016 207.599 258.438 295.858 385.609 66.394 107.764 67.613 151.259 67.613 232.302 0 175.055-173.787 387.462-387.316 387.462zM369.615 289.621c-155.648 0-263.802 127.171-263.802 282.77 0 155.697 108.203 282.917 263.802 282.917s282.77-127.22 282.77-282.819c0-155.697-127.171-282.868-282.77-282.868z" />
<glyph unicode="&#xe92b;" glyph-name="44" horiz-adv-x="1243" d="M1170.286 513.793c36.359 0 65.829-29.472 65.829-65.829s-29.469-65.829-65.829-65.829v131.657zM26.595 401.416c-25.708 25.708-25.708 67.388 0 93.096l418.931 418.93c25.708 25.708 67.388 25.708 93.095 0s25.708-67.388 0-93.096l-372.383-372.383 372.383-372.386c25.708-25.702 25.708-67.387 0-93.089-25.708-25.71-67.388-25.71-93.095 0l-418.931 418.926zM1170.286 382.136h-1097.143v131.657h1097.143v-131.657z" />
</font>
</defs>
</svg>
